微博 微信

Hao4K影音

[美剧] 查理·布朗和史努比秀 第一季4k The.Snoopy.Show.S01.2160p.美剧下载

2021-5-21 17:14:57 11873 0 |只看大图 回帖奖励 |倒序浏览 |阅读模式

大红色 帖主

2021-5-21 17:14:57

电视剧频道
电视剧封面:
电视剧名: 查理·布朗和史努比秀 第一季4k
年  代: 80年代  
国  家: 美国
类  别: 动画 短片 
语  言: 英语
字  幕: -
上映日期: 1983-09-17
文件格式: mkv    
视频效果: 4K(3840x2160)    
资源大小: 18.67 GB
片  长: 22 分钟
导  演: Sam Jaimes / Bill Melendez
剧情简介: -
史努比/查理·布朗和史努比秀 第一季4k The.Snoopy.Show.S01.2160p.ATVP.WEB-DL.DDP5.1.Atmos.DV.x265美剧短片信息
  1. Video
  2. ID : 1
  3. Format : HEVC
  4. Format/Info : High Efficiency Video Coding
  5. Format profile : Main 10@L5@High
  6. HDR format : Dolby Vision, Version 1.0, dvhe.05.06, BL+RPU
  7. Codec ID : dvhe
  8. Codec ID/Info : High Efficiency Video Coding with Dolby Vision
  9. Duration : 22 min 29 s
  10. Bit rate : 18.6 Mb/s
  11. Width : 3 840 pixels
  12. Height : 2 160 pixels
  13. Display aspect ratio : 16:9
  14. Frame rate mode : Constant
  15. Frame rate : 23.976 (24000/1001) FPS
  16. Color space : YUV
  17. Chroma subsampling : 4:2:0
  18. Bit depth : 10 bits
  19. Bits/(Pixel*Frame) : 0.094
  20. Stream size : 2.92 GiB (96%)
  21. Default : Yes
  22. Alternate group : 1
  23. Codec configuration box : hvcC+dvcC

  24. Audio
  25. ID : 2
  26. Format : E-AC-3 JOC
  27. Format/Info : Enhanced AC-3 with Joint Object Coding
  28. Commercial name : Dolby Digital Plus with Dolby Atmos
  29. Codec ID : ec-3
  30. Duration : 22 min 29 s
  31. Bit rate mode : Constant
  32. Bit rate : 768 kb/s
  33. Maximum bit rate : 811 kb/s
  34. Channel(s) : 6 channels
  35. Channel layout : L R C LFE Ls Rs
  36. Sampling rate : 48.0 kHz
  37. Frame rate : 31.250 FPS (1536 SPF)
  38. Compression mode : Lossy
  39. Stream size : 124 MiB (4%)
  40. Language : English
  41. Service kind : Complete Main
  42. Default : Yes
  43. Alternate group : 2
  44. Complexity index : Not present / 16
  45. Number of dynamic objects : 15
  46. Bed channel count : 1 channel
  47. Bed channel configuration : LFE

  48. Text #1
  49. ID : 3
  50. Format : Timed Text
  51. Codec ID : tx3g
  52. Duration : 22 min 25 s
  53. Bit rate mode : Variable
  54. Bit rate : 35 b/s
  55. Stream size : 5.76 KiB (0%)
  56. Title : Nederlands
  57. Language : Dutch
  58. Forced : No

  59. Text #2
  60. ID : 4
  61. Format : Timed Text
  62. Codec ID : tx3g
  63. Duration : 22 min 25 s
  64. Bit rate mode : Variable
  65. Bit rate : 38 b/s
  66. Stream size : 6.22 KiB (0%)
  67. Title : Norsk
  68. Language : Norwegian
  69. Forced : No

  70. Text #3
  71. ID : 5
  72. Format : Timed Text
  73. Codec ID : tx3g
  74. Duration : 22 min 25 s
  75. Bit rate mode : Variable
  76. Bit rate : 39 b/s
  77. Stream size : 6.43 KiB (0%)
  78. Title : Dansk
  79. Language : Danish
  80. Forced : No

复制代码


史努比/查理·布朗和史努比秀 第一季4k The.Snoopy.Show.S01.2160p.ATVP.WEB-DL.DDP5.1.Atmos.DV.x265美剧短片下载

查理·布朗和史努比秀 第一季4k The.Snoopy.Show.S01.2160p.ATVP.WEB-DL.DDP5.1.Atmos.DV.x265【18.67 GB】
[Hao4k]查理·布朗和史努比秀 第一季4k The.Snoopy.Show.S01.2160p.ATVP.WEB-DL.DDP5..torrent (94.53 KB)
回复

使用道具 举报

   发表回复

您需要登录后才可以回帖 登录 | 立即注册

返回列表 本版积分规则

:
白银玩家
:
未填写

主题

帖子

积分1173

  • 在线客服

  • 返回顶部