微博 微信

Hao4K影音

电影频道
电影封面:
片  名: 隔山有眼4k
电影分类: 恐怖 惊悚 
国  家: 美国 
年  代: 70年代
分 辨 率: 4K(3840x2160)
电影格式: MKV|REMUX 
画质标准: HDR 
音质编码: DTS-HD Master Audio 
电影声道: 7.1声道 
帧数/FPS: 23.976 帧
电影语言: 英文原版 
资源大小: 33.45 GB
导  演: 韦斯·克雷文
豆瓣评分: 6.6 分
中文字幕: /thread-57712-1-1.html
剧情简介:  退休警长带领一家去加利福尼亚度假,在路上却出了事故,在这地图上都没有记录的不毛之地,他们遇上了另外一个家庭……
隔山有眼4k The.Hills.Have.Eyes.1977.2160p.UHD.BluRay.x265.10bit.HDR.DTS-HD.MA.7.1电影信息
  1. Video
  2. ID : 1
  3. Format : HEVC
  4. Format/Info : High Efficiency Video Coding
  5. Format profile : Main 10@L5.1@High
  6. HDR format : SMPTE ST 2086, HDR10 compatible
  7. Codec ID : V_MPEGH/ISO/HEVC
  8. Duration : 1 h 30 min
  9. Bit rate : 51.0 Mb/s
  10. Width : 3 840 pixels
  11. Height : 2 160 pixels
  12. Display aspect ratio : 16:9
  13. Frame rate mode : Constant
  14. Frame rate : 23.976 (24000/1001) FPS
  15. Color space : YUV
  16. Chroma subsampling : 4:2:0 (Type 2)
  17. Bit depth : 10 bits
  18. Bits/(Pixel*Frame) : 0.257
  19. Stream size : 32.1 GiB (96%)
  20. Writing library : x265 3.5+9-bf91444e0:[Windows][MSVC 1900][64 bit] 10bit
  21. Encoding settings : cpuid=1111039 / frame-threads=6 / numa-pools=32 / wpp / no-pmode / no-pme / no-psnr / no-ssim / log-level=2 / input-csp=1 / input-res=3840x2160 / interlace=0 / total-frames=129476 / level-idc=51 / high-tier=1 / uhd-bd=0 / ref=4 / no-allow-non-conformance / repeat-headers / annexb / aud / no-eob / no-eos / hrd / info / hash=0 / no-temporal-layers / no-open-gop / min-keyint=23 / keyint=250 / gop-lookahead=0 / bframes=4 / b-adapt=2 / b-pyramid / bframe-bias=0 / rc-lookahead=25 / lookahead-slices=4 / scenecut=40 / hist-scenecut=0 / radl=0 / no-splice / no-intra-refresh / ctu=64 / min-cu-size=8 / rect / no-amp / max-tu-size=32 / tu-inter-depth=1 / tu-intra-depth=1 / limit-tu=0 / rdoq-level=2 / dynamic-rd=0.00 / no-ssim-rd / signhide / no-tskip / nr-intra=0 / nr-inter=0 / no-constrained-intra / no-strong-intra-smoothing / max-merge=3 / limit-refs=3 / limit-modes / me=3 / subme=3 / merange=57 / temporal-mvp / no-frame-dup / no-hme / weightp / no-weightb / no-analyze-src-pics / deblock=-3:-3 / no-sao / no-sao-non-deblock / rd=4 / selective-sao=0 / no-early-skip / rskip / no-fast-intra / no-tskip-fast / no-cu-lossless / no-b-intra / no-splitrd-skip / rdpenalty=0 / psy-rd=2.00 / psy-rdoq=1.00 / no-rd-refine / no-lossless / cbqpoffs=0 / crqpoffs=0 / rc=crf / crf=17.4 / qcomp=0.60 / qpstep=4 / stats-write=0 / stats-read=0 / vbv-maxrate=160000 / vbv-bufsize=160000 / vbv-init=0.9 / min-vbv-fullness=50.0 / max-vbv-fullness=80.0 / crf-max=0.0 / crf-min=0.0 / ipratio=1.40 / pbratio=1.30 / aq-mode=2 / aq-strength=1.00 / cutree / zone-count=0 / no-strict-cbr / qg-size=32 / no-rc-grain / qpmax=69 / qpmin=0 / no-const-vbv / sar=1 / overscan=0 / videoformat=5 / range=0 / colorprim=9 / transfer=16 / colormatrix=9 / chromaloc=1 / chromaloc-top=2 / chromaloc-bottom=2 / display-window=0 / master-display=G(8500,39850)B(6550,2300)R(35400,14600)WP(15635,16450)L(10000000,01) / cll=1000,400 / min-luma=0 / max-luma=1023 / log2-max-poc-lsb=8 / vui-timing-info / vui-hrd-info / slices=1 / no-opt-qp-pps / no-opt-ref-list-length-pps / no-multi-pass-opt-rps / scenecut-bias=0.05 / hist-threshold=0.03 / no-opt-cu-delta-qp / no-aq-motion / hdr10 / hdr10-opt / no-dhdr10-opt / no-idr-recovery-sei / analysis-reuse-level=0 / analysis-save-reuse-level=0 / analysis-load-reuse-level=0 / scale-factor=0 / refine-intra=0 / refine-inter=0 / refine-mv=1 / refine-ctu-distortion=0 / no-limit-sao / ctu-info=0 / no-lowpass-dct / refine-analysis-type=0 / copy-pic=1 / max-ausize-factor=1.0 / no-dynamic-refine / no-single-sei / no-hevc-aq / no-svt / no-field / qp-adaptation-range=1.00 / scenecut-aware-qp=0conformance-window-offsets / right=0 / bottom=0 / decoder-max-rate=0 / no-vbv-live-multi-pass
  22. Default : Yes
  23. Forced : No
  24. Color range : Limited
  25. Color primaries : BT.2020
  26. Transfer characteristics : PQ
  27. Matrix coefficients : BT.2020 non-constant
  28. Mastering display color primaries : BT.2020
  29. Mastering display luminance : min: 0.0001 cd/m2, max: 1000 cd/m2
  30. Maximum Content Light Level : 1000 cd/m2
  31. Maximum Frame-Average Light Level : 400 cd/m2

  32. Audio
  33. ID : 2
  34. Format : DTS ES XLL
  35. Format/Info : Digital Theater Systems
  36. Commercial name : DTS-HD Master Audio
  37. Codec ID : A_DTS
  38. Duration : 1 h 30 min
  39. Bit rate mode : Variable
  40. Bit rate : 2 137 kb/s
  41. Channel(s) : 8 channels
  42. Channel layout : C L R Ls Rs LFE Lb Rb
  43. Sampling rate : 48.0 kHz
  44. Frame rate : 93.750 FPS (512 SPF)
  45. Bit depth : 16 bits
  46. Compression mode : Lossless
  47. Stream size : 1.34 GiB (4%)
  48. Title : Surround 7.1
  49. Language : English
  50. Default : No
  51. Forced : No

  52. Text #1
  53. ID : 3
  54. Format : PGS
  55. Muxing mode : zlib
  56. Codec ID : S_HDMV/PGS
  57. Codec ID/Info : Picture based subtitle format used on BDs/HD-DVDs
  58. Duration : 1 h 26 min
  59. Bit rate : 23.0 kb/s
  60. Count of elements : 1737
  61. Stream size : 14.2 MiB (0%)
  62. Language : English
  63. Default : No
  64. Forced : No

  65. Text #2
  66. ID : 4
  67. Format : PGS
  68. Muxing mode : zlib
  69. Codec ID : S_HDMV/PGS
  70. Codec ID/Info : Picture based subtitle format used on BDs/HD-DVDs
  71. Duration : 1 h 26 min
  72. Bit rate : 24.8 kb/s
  73. Count of elements : 1554
  74. Stream size : 15.3 MiB (0%)
  75. Language : German
  76. Default : No
  77. Forced : No

  78. Text #3
  79. ID : 5
  80. Format : PGS
  81. Muxing mode : zlib
  82. Codec ID : S_HDMV/PGS
  83. Codec ID/Info : Picture based subtitle format used on BDs/HD-DVDs
  84. Duration : 1 h 24 min
  85. Bit rate : 32.0 kb/s
  86. Count of elements : 1527
  87. Stream size : 19.4 MiB (0%)
  88. Language : German
  89. Default : No
  90. Forced : No

  91. Menu
  92. 00:00:00.000 : en:Chapter 01
  93. 00:01:18.119 : en:Chapter 02
  94. 00:08:45.775 : en:Chapter 03
  95. 00:15:49.949 : en:Chapter 04
  96. 00:23:14.851 : en:Chapter 05
  97. 00:26:55.488 : en:Chapter 06
  98. 00:33:07.777 : en:Chapter 07
  99. 00:38:24.385 : en:Chapter 08
  100. 00:44:17.404 : en:Chapter 09
  101. 00:50:34.698 : en:Chapter 10
  102. 00:58:52.195 : en:Chapter 11
  103. 01:08:50.000 : en:Chapter 12
  104. 01:18:23.073 : en:Chapter 13
  105. 01:28:37.145 : en:Chapter 14
复制代码


隔山有眼4k The.Hills.Have.Eyes.1977.2160p.UHD.BluRay.x265.10bit.HDR.DTS-HD.MA.7.1电影下载

隔山有眼4k The.Hills.Have.Eyes.1977.2160p.UHD.BluRay.x265.10bit.HDR.DTS-HD.MA.7.1【33.45 GB】
[Hao4k]隔山有眼4k The.Hills.Have.Eyes.1977.2160p.UHD.BluRay.x265.10bit.HDR.DTS-H.torrent (84.34 KB)
回复

使用道具 举报

全部回复32

iris6267 发表于 2021-5-24 09:24:25

iris6267 2

2021-5-24 09:24:25

感谢分享
回复 支持 反对

使用道具 举报

ywf6168 发表于 2021-5-24 09:43:48 Hao4K手机版

ywf6168 3

2021-5-24 09:43:48

感谢分享,以前看过
回复 支持 反对

使用道具 举报

honda景老师 发表于 2021-5-24 11:02:22 Hao4K手机版

honda景老师 4

2021-5-24 11:02:22

这个系列有两部但1977把我搞的有点晕
回复 支持 反对

使用道具 举报

yyyy1234458 发表于 2021-5-24 13:24:39

yyyy1234458 5

2021-5-24 13:24:39


感谢分享,值得一观
回复 支持 反对

使用道具 举报

月光麦田 发表于 2021-5-24 17:08:30

月光麦田 6

2021-5-24 17:08:30

谢谢分享
回复 支持 反对

使用道具 举报

凯x因素 发表于 2021-5-24 19:16:55

凯x因素 7

2021-5-24 19:16:55

恩,这片子这么老吗
回复 支持 反对

使用道具 举报

bbgrnnji 发表于 2021-5-24 19:51:12

bbgrnnji 8

2021-5-24 19:51:12

非常不错的电影
回复 支持 反对

使用道具 举报

18680506555 发表于 2021-5-24 20:04:36

18680506555 9

2021-5-24 20:04:36

恐怖电影中这部算不错的,不过第一部有些东西没交代清楚,第二部却换了剧情了
回复 支持 反对

使用道具 举报

世爵39 发表于 2021-5-24 20:48:11

世爵39 10

2021-5-24 20:48:11

从未想过原来是翻拍70年代的电影
回复 支持 反对

使用道具 举报

YOUDUOYUAN12345 发表于 2021-5-24 21:55:36

YOUDUOYUAN12345 11

2021-5-24 21:55:36

18680506555 发表于 2021-5-24 20:04
恐怖电影中这部算不错的,不过第一部有些东西没交代清楚,第二部却换了剧情了

好看吗?
回复 支持 反对

使用道具 举报

18680506555 发表于 2021-5-24 22:04:38

18680506555 12

2021-5-24 22:04:38


值得一看,挺恐怖的,前两年和老婆孩子一起看的,她两被吓到了
回复 支持 反对

使用道具 举报

13327866066 发表于 2021-5-25 08:20:45

13327866066 13

2021-5-25 08:20:45

谢谢楼主无私分享。
回复 支持 反对

使用道具 举报

fanxianhua 发表于 2021-5-25 08:44:43

fanxianhua 14

2021-5-25 08:44:43

感谢分享,值得一观
回复 支持 反对

使用道具 举报

lantian4439 发表于 2021-5-25 11:05:34

lantian4439 15

2021-5-25 11:05:34

感谢楼主
回复 支持 反对

使用道具 举报

月光麦田 发表于 2021-5-25 14:43:56

月光麦田 16

2021-5-25 14:43:56

谢谢分享
回复 支持 反对

使用道具 举报

dyczw 发表于 2021-5-25 15:12:13

dyczw 17

2021-5-25 15:12:13

感谢分享,辛苦了
回复 支持 反对

使用道具 举报

wzchenxin 发表于 2021-5-25 20:43:36

wzchenxin 18

2021-5-25 20:43:36

感谢楼主
回复 支持 反对

使用道具 举报

   发表回复

您需要登录后才可以回帖 登录 | 立即注册

返回列表 本版积分规则

  • 在线客服

  • 返回顶部