微博 微信

Hao4K影音

[美剧] 1971: The Year That Music Changed Everything 4k纪录片美剧下载

4 天前 19409 1 |只看大图 回帖奖励 |倒序浏览 |阅读模式

大红色 帖主

2021-5-24 16:49:23

电视剧频道
电视剧封面:
电视剧名: 1971: The Year That Music Changed Everything 4k
年  代: 2021  
国  家: 英国
类  别: 纪录片 历史 
语  言: 英语
字  幕: 英文原版
上映日期: 2021-05-21
文件格式: mkv    
视频效果: 4K(3840x2160)    
资源大小: 62.67 GB
片  长: -
导  演: 阿斯弗·卡帕迪尔 / Danielle Peck / James Rogan
剧情简介: 一个动荡的时代,1971年是音乐创新和重生的一年,政治和文化剧变让新面孔在舞台上大放异彩。
1971: The Year That Music Changed Everything ATVP.WEB-DL.x265.10bit.HDR.DDP5.1.Atmos纪录片美剧信息
  1. Video
  2. ID : 1
  3. Format : HEVC
  4. Format/Info : High Efficiency Video Coding
  5. Format profile : Main 10@L5@High
  6. HDR format : SMPTE ST 2086, HDR10 compatible
  7. Codec ID : V_MPEGH/ISO/HEVC
  8. Duration : 49 min 45 s
  9. Bit rate : 23.4 Mb/s
  10. Width : 3 840 pixels
  11. Height : 2 160 pixels
  12. Display aspect ratio : 16:9
  13. Frame rate mode : Constant
  14. Frame rate : 23.976 (24000/1001) FPS
  15. Color space : YUV
  16. Chroma subsampling : 4:2:0 (Type 2)
  17. Bit depth : 10 bits
  18. Bits/(Pixel*Frame) : 0.118
  19. Stream size : 8.13 GiB (95%)
  20. Language : English
  21. Default : Yes
  22. Forced : No
  23. Color range : Limited
  24. Color primaries : BT.2020
  25. Transfer characteristics : PQ
  26. Matrix coefficients : BT.2020 non-constant
  27. Mastering display color primaries : Display P3
  28. Mastering display luminance : min: 0.0050 cd/m2, max: 1000 cd/m2
  29. Maximum Content Light Level : 1154 cd/m2
  30. Maximum Frame-Average Light Level : 79 cd/m2

  31. Audio
  32. ID : 2
  33. Format : E-AC-3 JOC
  34. Format/Info : Enhanced AC-3 with Joint Object Coding
  35. Commercial name : Dolby Digital Plus with Dolby Atmos
  36. Codec ID : A_EAC3
  37. Duration : 49 min 45 s
  38. Bit rate mode : Constant
  39. Bit rate : 768 kb/s
  40. Channel(s) : 6 channels
  41. Channel layout : L R C LFE Ls Rs
  42. Sampling rate : 48.0 kHz
  43. Frame rate : 31.250 FPS (1536 SPF)
  44. Compression mode : Lossy
  45. Stream size : 273 MiB (3%)
  46. Language : English
  47. Service kind : Complete Main
  48. Default : Yes
  49. Forced : No
  50. Complexity index : 16
  51. Number of dynamic objects : 15
  52. Bed channel count : 1 channel
  53. Bed channel configuration : LFE

  54. Text #1
  55. ID : 3
  56. Format : UTF-8
  57. Codec ID : S_TEXT/UTF8
  58. Codec ID/Info : UTF-8 Plain Text
  59. Title : English [Forced]
  60. Language : English
  61. Default : Yes
  62. Forced : Yes

  63. Text #2
  64. ID : 4
  65. Format : UTF-8
  66. Codec ID : S_TEXT/UTF8
  67. Codec ID/Info : UTF-8 Plain Text
  68. Title : English
  69. Language : English
  70. Default : No
  71. Forced : No

  72. Text #3
  73. ID : 5
  74. Format : UTF-8
  75. Codec ID : S_TEXT/UTF8
  76. Codec ID/Info : UTF-8 Plain Text
  77. Title : Arabic
  78. Language : Arabic
  79. Default : No
  80. Forced : No

  81. Text #4
  82. ID : 6
  83. Format : UTF-8
  84. Codec ID : S_TEXT/UTF8
  85. Codec ID/Info : UTF-8 Plain Text
  86. Title : Bulgarian
  87. Language : Bulgarian
  88. Default : No
  89. Forced : No

  90. Text #5
  91. ID : 7
  92. Format : UTF-8
  93. Codec ID : S_TEXT/UTF8
  94. Codec ID/Info : UTF-8 Plain Text
  95. Title : Chinese Simplified
  96. Language : Chinese
  97. Default : No
  98. Forced : No

  99. Text #6
  100. ID : 8
  101. Format : UTF-8
  102. Codec ID : S_TEXT/UTF8
  103. Codec ID/Info : UTF-8 Plain Text
  104. Title : Chinese Traditional
  105. Language : Chinese
  106. Default : No
  107. Forced : No

  108. Text #7
  109. ID : 9
  110. Format : UTF-8
  111. Codec ID : S_TEXT/UTF8
  112. Codec ID/Info : UTF-8 Plain Text
  113. Title : Chinese Yue
  114. Language : Chinese
  115. Default : No
  116. Forced : No

  117. Text #8
  118. ID : 10
  119. Format : UTF-8
  120. Codec ID : S_TEXT/UTF8
  121. Codec ID/Info : UTF-8 Plain Text
  122. Title : Czech
  123. Language : Czech
  124. Default : No
  125. Forced : No

  126. Text #9
  127. ID : 11
  128. Format : UTF-8
  129. Codec ID : S_TEXT/UTF8
  130. Codec ID/Info : UTF-8 Plain Text
  131. Title : Danish
  132. Language : Danish
  133. Default : No
  134. Forced : No

  135. Text #10
  136. ID : 12
  137. Format : UTF-8
  138. Codec ID : S_TEXT/UTF8
  139. Codec ID/Info : UTF-8 Plain Text
  140. Title : Dutch
  141. Language : Dutch
  142. Default : No
  143. Forced : No

  144. Text #11
  145. ID : 13
  146. Format : UTF-8
  147. Codec ID : S_TEXT/UTF8
  148. Codec ID/Info : UTF-8 Plain Text
  149. Title : Estonian
  150. Language : Estonian
  151. Default : No
  152. Forced : No

  153. Text #12
  154. ID : 14
  155. Format : UTF-8
  156. Codec ID : S_TEXT/UTF8
  157. Codec ID/Info : UTF-8 Plain Text
  158. Title : European Spanish
  159. Language : Spanish
  160. Default : No
  161. Forced : No
复制代码


1971: The Year That Music Changed Everything ATVP.WEB-DL.x265.10bit.HDR.DDP5.1.Atmos纪录片美剧下载

1971: The Year That Music Changed Everything ATVP.WEB-DL.x265.10bit.HDR.DDP5.1.Atmos【62.67 GB】
1971.The.Year.That.Music.Changed.Everything.S01.2160p.ATVP.WEB-DL.x265.10bit.HDR.torrent (158.14 KB)
回复

使用道具 举报

全部回复1

colinsino 发表于 4 天前

colinsino 2

4 天前

谢谢楼主分享!
回复 支持 反对

使用道具 举报

   发表回复

您需要登录后才可以回帖 登录 | 立即注册

返回列表 本版积分规则

:
白银玩家
:
未填写

主题

帖子

积分1173

  • 在线客服

  • 返回顶部