微博 微信

Hao4K影音

[美剧] 你看不见的我4k The.Me.You.Cant.See.S01.2160p.美剧下载

2021-5-24 18:23:17 12812 1 |只看大图 回帖奖励 |倒序浏览 |阅读模式

大红色 帖主

2021-5-24 17:06:04

电视剧频道
电视剧封面:
电视剧名: 你看不见的我4k
年  代: 2021  
国  家: 美国
类  别: 纪录片 
语  言: 英语
字  幕: -
上映日期: 2021-05-21
文件格式: mkv    
视频效果: 4K(3840x2160)    
资源大小: 46.90 GB
片  长: -
导  演: 奥普拉·温弗瑞 / 哈里王子 / Lady Gaga / 格伦·克洛斯 / 德玛尔·德罗赞
剧情简介: 奥普拉·温弗瑞、哈里王子联合监制的Apple TV+纪录剧集《你看不见的我》(The Me You Can’t See,暂译)将于5月21日开播。该剧嘉宾包括Lady Gaga、格伦·克洛斯、德玛尔·德罗赞等,奥普拉、哈里王子将与嘉宾们就心理健康问题展开讨论,嘉宾们也将分享自己的故事。
你看不见的我4k The.Me.You.Cant.See.S01.2160p.ATVP.WEB-DL.x265.10bit.HDR.DD5.1美剧信息
  1. Video
  2. ID : 1
  3. Format : HEVC
  4. Format/Info : High Efficiency Video Coding
  5. Format profile : Main 10@L5@High
  6. HDR format : SMPTE ST 2086, HDR10 compatible
  7. Codec ID : V_MPEGH/ISO/HEVC
  8. Duration : 59 min 39 s
  9. Bit rate : 23.9 Mb/s
  10. Width : 3 840 pixels
  11. Height : 2 160 pixels
  12. Display aspect ratio : 16:9
  13. Frame rate mode : Constant
  14. Frame rate : 23.976 (24000/1001) FPS
  15. Color space : YUV
  16. Chroma subsampling : 4:2:0 (Type 2)
  17. Bit depth : 10 bits
  18. Bits/(Pixel*Frame) : 0.120
  19. Stream size : 9.96 GiB (98%)
  20. Language : English
  21. Default : Yes
  22. Forced : No
  23. Color range : Limited
  24. Color primaries : BT.2020
  25. Transfer characteristics : PQ
  26. Matrix coefficients : BT.2020 non-constant
  27. Mastering display color primaries : Display P3
  28. Mastering display luminance : min: 0.0050 cd/m2, max: 1000 cd/m2
  29. Maximum Content Light Level : 2746 cd/m2
  30. Maximum Frame-Average Light Level : 292 cd/m2

  31. Audio
  32. ID : 2
  33. Format : AC-3
  34. Format/Info : Audio Coding 3
  35. Commercial name : Dolby Digital
  36. Codec ID : A_AC3
  37. Duration : 59 min 39 s
  38. Bit rate mode : Constant
  39. Bit rate : 384 kb/s
  40. Channel(s) : 6 channels
  41. Channel layout : L R C LFE Ls Rs
  42. Sampling rate : 48.0 kHz
  43. Frame rate : 31.250 FPS (1536 SPF)
  44. Compression mode : Lossy
  45. Stream size : 164 MiB (2%)
  46. Language : English
  47. Service kind : Complete Main
  48. Default : Yes
  49. Forced : No

  50. Text #1
  51. ID : 3
  52. Format : UTF-8
  53. Codec ID : S_TEXT/UTF8
  54. Codec ID/Info : UTF-8 Plain Text
  55. Duration : 58 min 11 s
  56. Bit rate : 96 b/s
  57. Count of elements : 1246
  58. Stream size : 41.1 KiB (0%)
  59. Title : English
  60. Language : English
  61. Default : No
  62. Forced : No

  63. Text #2
  64. ID : 4
  65. Format : UTF-8
  66. Codec ID : S_TEXT/UTF8
  67. Codec ID/Info : UTF-8 Plain Text
  68. Duration : 58 min 23 s
  69. Bit rate : 99 b/s
  70. Count of elements : 1315
  71. Stream size : 42.7 KiB (0%)
  72. Title : English (SDH)
  73. Language : English
  74. Default : No
  75. Forced : No

  76. Text #3
  77. ID : 5
  78. Format : UTF-8
  79. Codec ID : S_TEXT/UTF8
  80. Codec ID/Info : UTF-8 Plain Text
  81. Duration : 59 min 24 s
  82. Bit rate : 127 b/s
  83. Count of elements : 998
  84. Stream size : 55.4 KiB (0%)
  85. Title : العربية
  86. Language : Arabic
  87. Default : No
  88. Forced : No

  89. Text #4
  90. ID : 6
  91. Format : UTF-8
  92. Codec ID : S_TEXT/UTF8
  93. Codec ID/Info : UTF-8 Plain Text
  94. Duration : 59 min 24 s
  95. Bit rate : 140 b/s
  96. Count of elements : 919
  97. Stream size : 61.2 KiB (0%)
  98. Title : български
  99. Language : Bulgarian
  100. Default : No
  101. Forced : No

  102. Text #5
  103. ID : 7
  104. Format : UTF-8
  105. Codec ID : S_TEXT/UTF8
  106. Codec ID/Info : UTF-8 Plain Text
  107. Duration : 59 min 24 s
  108. Bit rate : 86 b/s
  109. Count of elements : 988
  110. Stream size : 37.5 KiB (0%)
  111. Title : Čeština
  112. Language : Czech
  113. Default : No
  114. Forced : No

  115. Text #6
  116. ID : 8
  117. Format : UTF-8
  118. Codec ID : S_TEXT/UTF8
  119. Codec ID/Info : UTF-8 Plain Text
  120. Duration : 59 min 24 s
  121. Bit rate : 90 b/s
  122. Count of elements : 930
  123. Stream size : 39.3 KiB (0%)
  124. Title : dansk
  125. Language : Danish
  126. Default : No
  127. Forced : No

  128. Text #7
  129. ID : 9
  130. Format : UTF-8
  131. Codec ID : S_TEXT/UTF8
  132. Codec ID/Info : UTF-8 Plain Text
  133. Duration : 59 min 24 s
  134. Bit rate : 86 b/s
  135. Count of elements : 955
  136. Stream size : 37.4 KiB (0%)
  137. Title : Deutsch
  138. Language : German
  139. Default : No
  140. Forced : No

  141. Text #8
  142. ID : 10
  143. Format : UTF-8
  144. Codec ID : S_TEXT/UTF8
  145. Codec ID/Info : UTF-8 Plain Text
  146. Duration : 59 min 24 s
  147. Bit rate : 157 b/s
  148. Count of elements : 915
  149. Stream size : 68.6 KiB (0%)
  150. Title : Ελληνικά
  151. Language : Greek
  152. Default : No
  153. Forced : No
复制代码


你看不见的我4k The.Me.You.Cant.See.S01.2160p.ATVP.WEB-DL.x265.10bit.HDR.DD5.1美剧下载

你看不见的我4k The.Me.You.Cant.See.S01.2160p.ATVP.WEB-DL.x265.10bit.HDR.DD5.1【46.90 GB】
[Hao4k]你看不见的我4k The.Me.You.Cant.See.S01.2160p.ATVP.WEB-DL.x265.10bit.HDR.D.torrent (118.25 KB)
回复

使用道具 举报

全部回复1

jjjppp111 发表于 2021-5-24 18:23:17

jjjppp111 2

2021-5-24 18:23:17

THANK YOU VERY MUCH!!
回复 支持 反对

使用道具 举报

   发表回复

您需要登录后才可以回帖 登录 | 立即注册

返回列表 本版积分规则

:
白银玩家
:
未填写

主题

帖子

积分1167

  • 在线客服

  • 返回顶部