微博 微信

Hao4K影音

电影频道
电影封面:
片  名: 活死人军团4k
电影分类: 动作 科幻 恐怖 
国  家: 美国 
年  代: 2021年
分 辨 率: 4K(3840x2160)
电影格式: MKV|REMUX 
画质标准: HDR10 
音质编码: Dolby Digital Plus Audio 
电影声道: 5.1声道 
帧数/FPS: 24.000 帧
电影语言: 中文简体 中文繁体 英文原版 
资源大小: 18.37 GB
导  演: 扎克·施奈德
豆瓣评分: 5.4 分
中文字幕: -
剧情简介:  影片的故事发生在丧尸危机爆发的拉斯维加斯,在此期间,一名男子集结一群雇佣兵进行最终的赌博,冒险进入隔离区,以阻止有史以来最大的劫案。
不死丧军(港) / 活尸大军(台) / 死亡之师 / 死亡军团 / 僵尸军团 / 亡者之师 / 亡灵大军 / Army of the Damned/活死人军团4k Army.of.the.Dead.2021.2160p.NF.WEBRip.x265.10bit.HDR.DDP5.1.Atmos电影信息
  1. Video
  2. ID : 1
  3. Format : HEVC
  4. Format/Info : High Efficiency Video Coding
  5. Format profile : Main 10@L5.1@High
  6. HDR format : SMPTE ST 2086, HDR10 compatible
  7. Codec ID : V_MPEGH/ISO/HEVC
  8. Duration : 2 h 26 min
  9. Bit rate : 17.2 Mb/s
  10. Width : 3 840 pixels
  11. Height : 2 160 pixels
  12. Display aspect ratio : 16:9
  13. Frame rate mode : Constant
  14. Frame rate : 24.000 FPS
  15. Color space : YUV
  16. Chroma subsampling : 4:2:0
  17. Bit depth : 10 bits
  18. Bits/(Pixel*Frame) : 0.086
  19. Stream size : 17.6 GiB (96%)
  20. Writing library : x265 3.5+9-bf91444e0:[Windows][MSVC 1928][64 bit] 10bit
  21. Encoding settings : cpuid=1111039 / frame-threads=4 / numa-pools=28 / wpp / no-pmode / no-pme / no-psnr / no-ssim / log-level=2 / input-csp=1 / input-res=3840x2160 / interlace=0 / total-frames=0 / level-idc=51 / high-tier=1 / uhd-bd=0 / ref=5 / no-allow-non-conformance / repeat-headers / annexb / aud / no-eob / no-eos / hrd / info / hash=0 / no-temporal-layers / open-gop / min-keyint=24 / keyint=250 / gop-lookahead=0 / bframes=8 / b-adapt=2 / b-pyramid / bframe-bias=0 / rc-lookahead=40 / lookahead-slices=8 / scenecut=40 / hist-scenecut=0 / radl=0 / no-splice / no-intra-refresh / ctu=64 / min-cu-size=8 / no-rect / no-amp / max-tu-size=32 / tu-inter-depth=3 / tu-intra-depth=4 / limit-tu=0 / rdoq-level=0 / dynamic-rd=0.00 / no-ssim-rd / signhide / no-tskip / nr-intra=0 / nr-inter=0 / no-constrained-intra / strong-intra-smoothing / max-merge=5 / limit-refs=0 / no-limit-modes / me=1 / subme=5 / merange=57 / temporal-mvp / no-frame-dup / no-hme / weightp / weightb / no-analyze-src-pics / deblock=-3:-3 / no-sao / no-sao-non-deblock / rd=4 / selective-sao=0 / early-skip / rskip / no-fast-intra / no-tskip-fast / no-cu-lossless / b-intra / no-splitrd-skip / rdpenalty=0 / psy-rd=2.00 / psy-rdoq=0.00 / no-rd-refine / no-lossless / cbqpoffs=0 / crqpoffs=0 / rc=crf / crf=17.0 / qcomp=0.60 / qpstep=4 / stats-write=0 / stats-read=0 / vbv-maxrate=160000 / vbv-bufsize=160000 / vbv-init=0.9 / min-vbv-fullness=50.0 / max-vbv-fullness=80.0 / crf-max=0.0 / crf-min=0.0 / ipratio=1.30 / pbratio=1.20 / aq-mode=3 / aq-strength=0.80 / no-cutree / zone-count=0 / no-strict-cbr / qg-size=32 / no-rc-grain / qpmax=69 / qpmin=0 / no-const-vbv / sar=1 / overscan=0 / videoformat=5 / range=0 / colorprim=9 / transfer=16 / colormatrix=9 / chromaloc=0 / display-window=0 / master-display=G(13250,34500)B(7500,3000)R(34000,16000)WP(15635,16450)L(10000000,1) / cll=2473,596 / min-luma=0 / max-luma=1023 / log2-max-poc-lsb=8 / vui-timing-info / vui-hrd-info / slices=1 / no-opt-qp-pps / no-opt-ref-list-length-pps / no-multi-pass-opt-rps / scenecut-bias=0.05 / hist-threshold=0.03 / no-opt-cu-delta-qp / no-aq-motion / hdr10 / hdr10-opt / no-dhdr10-opt / no-idr-recovery-sei / analysis-reuse-level=0 / analysis-save-reuse-level=0 / analysis-load-reuse-level=0 / scale-factor=0 / refine-intra=0 / refine-inter=0 / refine-mv=1 / refine-ctu-distortion=0 / no-limit-sao / ctu-info=0 / no-lowpass-dct / refine-analysis-type=0 / copy-pic=1 / max-ausize-factor=1.0 / no-dynamic-refine / no-single-sei / no-hevc-aq / no-svt / no-field / qp-adaptation-range=1.00 / scenecut-aware-qp=0conformance-window-offsets / right=0 / bottom=0 / decoder-max-rate=0 / no-vbv-live-multi-pass
  22. Default : Yes
  23. Forced : No
  24. Color range : Limited
  25. Color primaries : BT.2020
  26. Transfer characteristics : PQ
  27. Matrix coefficients : BT.2020 non-constant
  28. Mastering display color primaries : Display P3
  29. Mastering display luminance : min: 0.0001 cd/m2, max: 1000 cd/m2
  30. Maximum Content Light Level : 2473 cd/m2
  31. Maximum Frame-Average Light Level : 596 cd/m2

  32. Audio
  33. ID : 2
  34. Format : E-AC-3 JOC
  35. Format/Info : Enhanced AC-3 with Joint Object Coding
  36. Commercial name : Dolby Digital Plus with Dolby Atmos
  37. Codec ID : A_EAC3
  38. Duration : 2 h 28 min
  39. Bit rate mode : Constant
  40. Bit rate : 768 kb/s
  41. Channel(s) : 6 channels
  42. Channel layout : L R C LFE Ls Rs
  43. Sampling rate : 48.0 kHz
  44. Frame rate : 31.250 FPS (1536 SPF)
  45. Compression mode : Lossy
  46. Stream size : 815 MiB (4%)
  47. Title : English
  48. Language : English
  49. Service kind : Complete Main
  50. Default : No
  51. Forced : No
  52. Complexity index : 16
  53. Number of dynamic objects : 15
  54. Bed channel count : 1 channel
  55. Bed channel configuration : LFE

  56. Text #1
  57. ID : 3
  58. Format : UTF-8
  59. Codec ID : S_TEXT/UTF8
  60. Codec ID/Info : UTF-8 Plain Text
  61. Duration : 2 h 23 min
  62. Bit rate : 55 b/s
  63. Count of elements : 1992
  64. Stream size : 59.0 KiB (0%)
  65. Title : English [CC]
  66. Language : English
  67. Default : No
  68. Forced : No

  69. Text #2
  70. ID : 4
  71. Format : UTF-8
  72. Codec ID : S_TEXT/UTF8
  73. Codec ID/Info : UTF-8 Plain Text
  74. Duration : 2 h 26 min
  75. Bit rate : 36 b/s
  76. Count of elements : 1381
  77. Stream size : 39.0 KiB (0%)
  78. Title : German
  79. Language : German
  80. Default : No
  81. Forced : No


  82. Text #10
  83. ID : 12
  84. Format : UTF-8
  85. Codec ID : S_TEXT/UTF8
  86. Codec ID/Info : UTF-8 Plain Text
  87. Duration : 2 h 26 min
  88. Bit rate : 38 b/s
  89. Count of elements : 1455
  90. Stream size : 41.2 KiB (0%)
  91. Title : Chinese Simplified
  92. Language : Chinese
  93. Default : No
  94. Forced : No

  95. Text #39
  96. ID : 41
  97. Format : UTF-8
  98. Codec ID : S_TEXT/UTF8
  99. Codec ID/Info : UTF-8 Plain Text
  100. Duration : 2 h 26 min
  101. Bit rate : 38 b/s
  102. Count of elements : 1529
  103. Stream size : 41.5 KiB (0%)
  104. Title : Chinese Traditional
  105. Language : Chinese
  106. Default : No
  107. Forced : No
复制代码


不死丧军(港) / 活尸大军(台) / 死亡之师 / 死亡军团 / 僵尸军团 / 亡者之师 / 亡灵大军 / Army of the Damned/活死人军团4k Army.of.the.Dead.2021.2160p.NF.WEBRip.x265.10bit.HDR.DDP5.1.Atmos电影下载

活死人军团4k Army.of.the.Dead.2021.2160p.NF.WEBRip.x265.10bit.HDR.DDP5.1.Atmos-简繁中字【18.37 GB】
[Hao4k]活死人军团4k Army.of.the.Dead.2021.2160p.NF.WEBRip.x265.10bit.HDR.DDP5.1..torrent (92.5 KB, 售价: 2 K币)
回复

使用道具 举报

全部回复10

世爵39 发表于 2021-5-25 08:08:45

世爵39 2

2021-5-25 08:08:45

一早是我第一个人对这套影片发表
回复 支持 1 反对 0

使用道具 举报

世爵39 发表于 2021-5-25 08:09:18

世爵39 3

2021-5-25 08:09:18

这影片我也等了好久了
回复 支持 反对

使用道具 举报

foxdoghunter 发表于 2021-5-25 08:14:34

foxdoghunter 4

2021-5-25 08:14:34

不错不错,虽然是web版,但可以尝尝鲜先
回复 支持 反对

使用道具 举报

mh690113 发表于 2021-5-25 08:16:17

mh690113 5

2021-5-25 08:16:17

这影片够火爆
回复 支持 反对

使用道具 举报

cdyangjun2019 发表于 2021-5-25 08:31:45

cdyangjun2019 6

2021-5-25 08:31:45

谢谢楼主分享,幸苦了
回复 支持 1 反对 0

使用道具 举报

jackpxy 发表于 2021-5-25 08:46:24

jackpxy 7

2021-5-25 08:46:24

多谢分享
回复 支持 反对

使用道具 举报

慕容俊龙 发表于 2021-5-25 08:46:54

慕容俊龙 8

2021-5-25 08:46:54

赞啊,谢谢
回复 支持 反对

使用道具 举报

不愠不火 发表于 2021-5-25 08:49:06

不愠不火 9

2021-5-25 08:49:06

感谢分享,是烂片。
回复 支持 反对

使用道具 举报

gd-man 发表于 2021-5-25 08:50:15

gd-man 10

2021-5-25 08:50:15

评分好像不太高啊
回复 支持 反对

使用道具 举报

放开那大腿 发表于 2021-5-25 08:55:52

放开那大腿 11

2021-5-25 08:55:52

这片到底咋样
回复 支持 1 反对 0

使用道具 举报

   发表回复

您需要登录后才可以回帖 登录 | 立即注册

返回列表 本版积分规则

  • 在线客服

  • 返回顶部