微博 微信

Hao4K影音

电影频道
电影封面:
片  名: 不洁4k
电影分类: 恐怖 
国  家: 美国 
年  代: 2021年
分 辨 率: 4K(3840x2160)
电影格式: MKV|REMUX 
画质标准: HDR10 
音质编码: Dolby Digital Plus Audio 
电影声道: 5.1声道 
帧数/FPS: 23.976 帧
电影语言: 英文原版 
资源大小: 10.71 GB
导  演: 埃文·斯彼里奥托普洛斯
豆瓣评分:
中文字幕: /thread-57714-1-1.html
剧情简介: 本片讲述一位听障女孩爱丽丝在圣母玛利亚的一次探视之后莫名其妙地恢复了视听功能,甚至还能给人治病。这一消息立刻传开,人们纷涌而至,感受奇迹,一位失了名声的记者(Jeffrey扮演)想要一探究竟并借此找回名声。随着可怕的事情一件件发生,他开始质疑这些现象是圣母玛利亚的“杰作”,还是更邪恶的存在?
圣地 / 邪恶 / 邪恶玛利亚 / Shrine/不洁4k The.Unholy.2021.2160p.AMZN.WEB-DL.x265.10bit.HDR10Plus.DDP5.1电影信息
  1. Video
  2. ID : 1
  3. Format : HEVC
  4. Format/Info : High Efficiency Video Coding
  5. Format profile : Main 10@L5@Main
  6. HDR format : SMPTE ST 2094 App 4, Version 1, HDR10+ Profile B compatible
  7. Codec ID : V_MPEGH/ISO/HEVC
  8. Duration : 1 h 39 min
  9. Bit rate : 14.8 Mb/s
  10. Width : 3 840 pixels
  11. Height : 1 600 pixels
  12. Display aspect ratio : 2.40:1
  13. Frame rate mode : Constant
  14. Frame rate : 23.976 (24000/1001) FPS
  15. Color space : YUV
  16. Chroma subsampling : 4:2:0
  17. Bit depth : 10 bits
  18. Bits/(Pixel*Frame) : 0.100
  19. Stream size : 10.3 GiB (96%)
  20. Default : Yes
  21. Forced : No
  22. Color range : Limited
  23. Color primaries : BT.2020
  24. Transfer characteristics : PQ
  25. Matrix coefficients : BT.2020 non-constant
  26. Mastering display color primaries : Display P3
  27. Mastering display luminance : min: 0.0001 cd/m2, max: 1000 cd/m2
  28. Maximum Content Light Level : 1894 cd/m2
  29. Maximum Frame-Average Light Level : 206 cd/m2

  30. Audio
  31. ID : 2
  32. Format : E-AC-3
  33. Format/Info : Enhanced AC-3
  34. Commercial name : Dolby Digital Plus
  35. Codec ID : A_EAC3
  36. Duration : 1 h 39 min
  37. Bit rate mode : Constant
  38. Bit rate : 640 kb/s
  39. Channel(s) : 6 channels
  40. Channel layout : L R C LFE Ls Rs
  41. Sampling rate : 48.0 kHz
  42. Frame rate : 31.250 FPS (1536 SPF)
  43. Compression mode : Lossy
  44. Stream size : 455 MiB (4%)
  45. Title : English
  46. Language : English
  47. Service kind : Complete Main
  48. Default : No
  49. Forced : No

  50. Text #1
  51. ID : 3
  52. Format : UTF-8
  53. Codec ID : S_TEXT/UTF8
  54. Codec ID/Info : UTF-8 Plain Text
  55. Duration : 1 h 38 min
  56. Bit rate : 52 b/s
  57. Count of elements : 1357
  58. Stream size : 37.4 KiB (0%)
  59. Title : English [SDH]
  60. Language : English
  61. Default : No
  62. Forced : No

  63. Text #2
  64. ID : 4
  65. Format : UTF-8
  66. Codec ID : S_TEXT/UTF8
  67. Codec ID/Info : UTF-8 Plain Text
  68. Duration : 1 h 30 min
  69. Bit rate : 47 b/s
  70. Count of elements : 1052
  71. Stream size : 31.9 KiB (0%)
  72. Title : English
  73. Language : English
  74. Default : No
  75. Forced : No
复制代码


圣地 / 邪恶 / 邪恶玛利亚 / Shrine/不洁4k The.Unholy.2021.2160p.AMZN.WEB-DL.x265.10bit.HDR10Plus.DDP5.1电影下载

不洁4k The.Unholy.2021.2160p.AMZN.WEB-DL.x265.10bit.HDR10Plus.DDP5.1【10.71 GB】
[Hao4k]不洁4k The.Unholy.2021.2160p.AMZN.WEB-DL.x265.10bit.HDR10Plus.DDP5.1-CM.torrent (54.21 KB)
回复

使用道具 举报

全部回复63

luckydog333 发表于 2021-5-25 18:15:10

luckydog333 2

2021-5-25 18:15:10

楼主辛苦了     谢谢楼主
回复 支持 反对

使用道具 举报

leish 发表于 2021-5-25 18:58:31

leish 3

2021-5-25 18:58:31

感谢感谢!最爱恐怖片!
回复 支持 反对

使用道具 举报

shuergao 发表于 2021-5-25 19:36:02

shuergao 4

2021-5-25 19:36:02

谢谢楼主
回复 支持 反对

使用道具 举报

jionch 发表于 2021-5-25 20:07:55

jionch 5

2021-5-25 20:07:55


谢谢分享
回复 支持 反对

使用道具 举报

以酒会友 发表于 2021-5-25 20:43:13

以酒会友 6

2021-5-25 20:43:13

感谢分享!
回复 支持 反对

使用道具 举报

TC001 发表于 2021-5-25 20:57:52

TC001 7

2021-5-25 20:57:52

新片没字幕
回复 支持 反对

使用道具 举报

18060587739 发表于 2021-5-25 20:58:16

18060587739 8

2021-5-25 20:58:16

没有中文字幕么!
回复 支持 反对

使用道具 举报

836326113 发表于 2021-5-25 21:13:06

836326113 9

2021-5-25 21:13:06

谢谢分享
回复 支持 反对

使用道具 举报

zsn575757 发表于 2021-5-25 22:00:21

zsn575757 10

2021-5-25 22:00:21

haokanma
回复 支持 反对

使用道具 举报

wxky 发表于 2021-5-25 22:23:47 Hao4K手机版

wxky 11

2021-5-25 22:23:47

谢谢分享
回复 支持 反对

使用道具 举报

ARFEI 发表于 2021-5-25 22:45:13

ARFEI 12

2021-5-25 22:45:13

新片,要看看,多谢分享
回复 支持 反对

使用道具 举报

szjimmylau 发表于 2021-5-25 23:58:17

szjimmylau 13

2021-5-25 23:58:17

楼主辛苦了     谢谢楼主
回复 支持 反对

使用道具 举报

sunny830 发表于 2021-5-26 01:59:51

sunny830 14

2021-5-26 01:59:51

学习楼主!!!!
回复 支持 反对

使用道具 举报

imken 发表于 2021-5-26 03:58:03

imken 15

2021-5-26 03:58:03

谢谢分享,字幕可以哪里找呢?
回复 支持 反对

使用道具 举报

dyczw 发表于 2021-5-26 06:48:51

dyczw 16

2021-5-26 06:48:51

感谢分享,辛苦了
回复 支持 反对

使用道具 举报

1013433694 发表于 2021-5-26 08:42:13

1013433694 17

2021-5-26 08:42:13

这是梵蒂冈录像带的续集吗?结尾恶魔降生的女孩,在这部里是主角
回复 支持 反对

使用道具 举报

cdyangjun2019 发表于 2021-5-26 09:14:39

cdyangjun2019 18

2021-5-26 09:14:39

新的恐怖片,谢谢楼主分享
回复 支持 反对

使用道具 举报

   发表回复

您需要登录后才可以回帖 登录 | 立即注册

返回列表 本版积分规则

关闭

站内通知上一条 /1 下一条

  • 在线客服

  • 返回顶部