微博 微信

Hao4K影音

[字幕音轨相关] 用tsMuxerGUI导入音轨失败,提示unsupported format或tsmuxer error

2021-5-31 13:20:16 2578 15 |只看大图 回帖奖励 |倒序浏览 |阅读模式

初一998181 帖主

2021-5-27 16:32:51

各路大神,请教一个问题!近日我下载了一些国语音轨,有AC3格式的,有DTS格式的,有mka格式的,在蓝光原盘用tsMuxerGUI导入音轨时,有些正常,有些失败。失败的又分两种情况:其中AC3和DTS格式的,提示unsupported format  can't detect stream type .file name:******(文件名);有些mka格式的就提示tsmuxer error  error:matroska parse error:Invalid EBML number size 0 at pos 0 。百思不得其解,恳请各路大神解惑,在此谢谢了!
3 o  Y$ m! e# f$ r/ m3 w
回复

使用道具 举报

全部回复15

15109259550 发表于 2021-5-27 20:14:14 Hao4K手机版

15109259550 2

2021-5-27 20:14:14

mka可能含ts不支持的音轨,如无内核的truehd音轨或不支持的字幕,tsmuxer是无法识别这类的,ac3估计也相同,可能直接就是无内核的truehd音轨,只是改后缀为ac3了,dts错误不清楚,把tsmuxer更新到新版试试
回复 支持 反对

使用道具 举报

michaellv 发表于 2021-5-27 21:49:51

michaellv 3

2021-5-27 21:49:51

tsmuxer混流加音轨限制很多的,比如两者时长相差太多就会报错(看你的出错信息应该也是属于这种)。其实像这种加音轨,用mkvtools才是王道,几乎所有重编码组也都是用此来做混流的,帧率不一样或时长相差很多都是可以调整的!当然用mkvtools混流也有缺陷,那就是单轨双层的次世代音轨会被强行剥离成两个单独的轨道,而这对于大多数的碟机都无法完美播放。
回复 支持 反对

使用道具 举报

初一998181 发表于 2021-5-27 22:37:24

初一998181 4

2021-5-27 22:37:24

15109259550 发表于 2021-5-27 20:14
% y5 G& X, L6 e! i  smka可能含ts不支持的音轨,如无内核的truehd音轨或不支持的字幕,tsmuxer是无法识别这类的,ac3估计也相同 ...

0 e, {( w6 ^5 I& }8 P9 G8 f出错的DTS音轨是内录2.0公映国语其他轨道为原版英语DTS分离,编辑重混后的DTS(半码),具体参数为音频 #1- K  F2 b5 ~( j$ A: d! [& |, p
ID                                       : 2
! H  g, l2 f( p' L格式                                       : DTS! k3 a9 d* r5 f9 e3 F
格式/信息                                    : Digital Theater Systems% M; q: E/ ^, {$ C! e
模式                                       : 167 r5 U! z( E( j5 F
格式设置, Endianness                         : Big
8 L/ X/ G% N6 N: x3 m9 D0 h- S编解码器ID                                   : A_DTS0 l7 h! A9 d, G: A
持续时间                                     : 1小时 47分(for 1小时 47分 53秒 707ms)
  t- d" I* N) v码率模式                                     : 恒定(CBR)
: T* i" v3 j! H* G, N+ E8 \8 h码率                                       : 768 kb/s% l. k, [, y$ e# e6 N; K" }
声道                                       : 6 声道
0 ~4 W4 F$ o/ v' O声道位置                                     : Front: L C R, Side: L R, LFE
1 ]. f3 N" }& A9 e: _采样率                                      : 48.0 kHz- [1 L) g+ Z. Q" y& o- u" c
帧率                                       : 93.750 FPS (512 spf)
3 D. o- t  `% C. q' X! _! N位深                                       : 16 位
6 q$ t" X  Z! Z$ s压缩模式                                     : 有损压缩. \. Z# m* l+ J9 I- W7 v) {4 y
流大小                                      : 593 MiB (12%)+ M% E$ U  n& ~0 p; j* N
标题                                       : 花茶重混八一公映国配 DTS 768kbps-6ch+ t. [; v: D4 K
语言                                       : 中文 (Chinese)
6 C; G; E0 X! z( n/ m7 t应该不属于无内核的truehd音轨( t/ M7 _8 g3 _

% H/ U( M. X! H0 P& UAC3音轨的参数:Format                      : AC-3$ X( x6 [$ S  q8 K9 K5 L" _
Format/Info                 : Audio Coding 3
# A, t% G. U7 b, F6 X( w' ~& @照理也是属于AC3格式啊7 G) `1 X3 e* W9 O# L) r% Q" W
tsmuxer更新到2020年6月11日的最新版了,也不行
回复 支持 反对

使用道具 举报

初一998181 发表于 2021-5-27 22:40:43

初一998181 5

2021-5-27 22:40:43

michaellv 发表于 2021-5-27 21:49# i! h! m5 Q% s6 V7 s1 F" e; q' A
tsmuxer混流加音轨限制很多的,比如两者时长相差太多就会报错(看你的出错信息应该也是属于这种)。其实像 ...
8 O* b5 h5 A# V6 N
我试过用 MKVToolNix2820 导入这些音轨,直接就是无反应了,也没有什么提示!如果说是因为时长相差太多的原因,有两个相同时长的音轨,mka的就可以导入,ac3的就出错了,郁闷!
回复 支持 反对

使用道具 举报

初一998181 发表于 2021-5-27 22:42:21

初一998181 6

2021-5-27 22:42:21

15109259550 发表于 2021-5-27 20:14/ o7 U. W, W3 L+ X
mka可能含ts不支持的音轨,如无内核的truehd音轨或不支持的字幕,tsmuxer是无法识别这类的,ac3估计也相同 ...

; p1 s! `! w1 y& T这些是AC3 的具体参数" u/ R  N& E# s  r
Complete name               : C:\Users\Administrator\Desktop\sing.欢乐好声音.正版蓝光提取国粤语\00800.track_4354.ac3' D. c1 i# ~2 w/ H
Format                      : E-AC-3; f7 z. O& U5 t8 i- s" _
Format/Info                 : Enhanced Audio Coding 3
3 Y( S  O3 a/ u9 P& d9 EFile size                   : 593 MiB3 t3 a. ^5 g( U% |) t! \+ p2 D
Overall bit rate mode       : Constant
% Z- i/ A5 x$ d; I. zOverall bit rate            : 500 b/s
. E8 H# a! m0 G# e' s" w" lFileExtension_Invalid       : dd+ ec3 eac3
: U. N5 M0 c4 P
# Q3 X5 g+ R# a/ w7 yAudio
8 }% s* d1 k; {, j; y4 W, c. A& aFormat                      : E-AC-3
+ d$ W5 q! I9 j+ y6 q4 WFormat/Info                 : Enhanced Audio Coding 3- X/ S; F/ Z# c0 S+ e
Format settings, Endianness : Big/ F- g) i( ?8 q+ l5 u1 y, N
Bit rate mode               : Constant4 ~1 @/ N- y$ {: N: z$ }
Bit rate                    : 500 b/s
% o' ]" f. {' M. U0 i  C- cChannel(s)                  : 6 channels
  G$ n$ K+ Y  W$ ?0 w! kChannel positions           : Front: L C R, Side: L R, LFE
& j; O0 p1 o/ H! U* {/ ESampling rate               : 48.0 kHz6 b9 ~+ t8 {+ Q& o; k9 l2 q' |( F
Frame rate                  : 187.500 FPS (256 spf)
( y( N  J) K  ^4 w* UCompression mode            : Lossy
1 [* K: y0 X' p3 m$ {5 @0 }& eStream size                 : 593 MiB (100%)
; z5 b  e. F  T% @" PService kind                : Complete Main
' V8 _- |6 v: b* I. Y/ c1 O
' K# j# e$ r" ^2 J( r
3 {& ^/ T. _* iComplete name               : C:\Users\Administrator\Desktop\sing.欢乐好声音.正版蓝光提取国粤语\00800.track_4355.ac3; V, K8 W7 s  j6 `
Format                      : AC-32 q8 z$ x" F  j; W
Format/Info                 : Audio Coding 39 R6 {7 d; A% Y, h
File size                   : 494 MiB- S& K3 [8 Y# ^
Duration                    : 1 h 47 min- g) R+ R7 z) V7 O
Overall bit rate mode       : Constant. N# N. y7 E7 L
Overall bit rate            : 640 kb/s' }& B3 s; E7 d: w# t+ ~6 C
  K" u0 w4 {. L# S5 t
Audio. z% I* S" @! p* k9 y/ v: `! }: k
Format                      : AC-3( W( h2 O- e3 p  e' _; l
Format/Info                 : Audio Coding 3
5 n! w/ ^! }: Z9 q. j; B4 t, d) LFormat settings, Endianness : Big" i$ m" z4 D: i3 y, d; q) t
Duration                    : 1 h 47 min$ _1 o, J/ p1 P; \; v1 b: }
Bit rate mode               : Constant
1 f  }0 q$ S- e- jBit rate                    : 640 kb/s, k9 E! O- S* o  G$ |3 a4 W
Channel(s)                  : 6 channels! V2 K" ]! U3 Q! ?
Channel positions           : Front: L C R, Side: L R, LFE( ]: o# [( l  i
Sampling rate               : 48.0 kHz2 Y) {% B0 H% j" `
Frame rate                  : 31.250 FPS (1536 spf): A' g( N  O3 r: Y+ j3 l. j- e/ w
Bit depth                   : 16 bits
! D% C% U, F" o% qCompression mode            : Lossy9 h. F- S" Y% P9 T
Stream size                 : 494 MiB (100%)9 ^, i( G" i0 @# Z4 R% F6 J1 Q  ?2 ~
Service kind                : Complete Main3 z6 N8 t0 n/ G4 i0 M8 t6 }4 V

5 r9 [1 @: e  C* `; ~( L: X3 B: h9 L; F. P% }/ v5 e6 B$ U
General
' n  [" S8 k: K3 p" t5 Y/ XComplete name               : C:\Users\Administrator\Desktop\sing.欢乐好声音.正版蓝光提取国粤语\00800.track_4356.ac3
2 V' C% |2 }8 O. a# zFormat                      : E-AC-3
8 L5 h9 S$ c& {' H: u. s- SFormat/Info                 : Enhanced Audio Coding 3( V: D# ?+ q8 `% ^  A
File size                   : 593 MiB
% e+ }+ c! Y) cOverall bit rate mode       : Constant& Y& Q# u) \6 w, Y/ O) m4 u
Overall bit rate            : 500 b/s
- g$ d9 W+ D7 C5 sFileExtension_Invalid       : dd+ ec3 eac36 v" A' t- O. ^: a" T: D4 a) H
9 o- M) C' y' Q5 l
Audio  z& H* P- P5 u$ }( K
Format                      : E-AC-3
3 A8 A, z8 n7 Y$ h. HFormat/Info                 : Enhanced Audio Coding 37 X9 _/ K) Z8 F5 }& K
Format settings, Endianness : Big1 k5 M7 s$ X* J6 k' Y
Bit rate mode               : Constant
$ v, e/ b5 z# B& q$ MBit rate                    : 500 b/s7 D" H5 f% m1 J, A
Channel(s)                  : 6 channels4 _8 z: p+ T+ h4 a/ O. Z4 ^, x; ]
Channel positions           : Front: L C R, Side: L R, LFE5 a5 }& u% e" ~) }
Sampling rate               : 48.0 kHz
) o% d' L: y: _, H$ j0 B, LFrame rate                  : 187.500 FPS (256 spf)
$ ]8 L' y. P3 s7 n/ ^/ hCompression mode            : Lossy/ Q8 X& a, q' [, {
Stream size                 : 593 MiB (100%)
! g# R6 \  a7 o- P( _/ Z; L2 ~4 V# E( l' uService kind                : Complete Main
回复 支持 反对

使用道具 举报

初一998181 发表于 2021-5-27 22:44:19

初一998181 7

2021-5-27 22:44:19

之前也经常添加各种音轨,还从没有碰到这些问题,也试过改名字,也不行
回复 支持 反对

使用道具 举报

初一998181 发表于 2021-5-27 22:48:49

初一998181 8

2021-5-27 22:48:49

下面这两条AC3音轨也是全部出错,也试过换电脑也不行
6 ~" a8 M, `5 U6 K+ k完整名称                           :疯狂原始人2_DD5.1-640kbps-CHS.ac3
1 X. `" l* {% w1 s格式                             : AC-3
' [8 _  s) `' l1 _- @* A* L7 b格式/信息                          : Audio Coding 3( f  }8 ?- s8 e9 w' f
传播名                            : Dolby Digital' S" B6 J( [- O* w
文件大小                           : 436 MiB
" e; }& ^" H: S" M时长                             : 1 时 35 分
8 y5 o! {8 J7 i& Y3 ]6 k总体码率模式                         : 恒定码率 (CBR)
. b) n% e# j* v$ ^2 n总体码率                           : 640 kb/s
, }& v9 B. \8 h$ g9 S. d0 B7 M- ~6 X3 J- ~. t1 L
音频
' X. N: ]+ e- h& {% @" p' ^& J2 d& k格式                             : AC-3: |# x  \- u7 I9 d" f/ G
格式/信息                          : Audio Coding 34 h( f5 @5 k* p* c
传播名                            : Dolby Digital% w2 `2 P$ N9 u3 y% K; E
时长                             : 1 时 35 分! ]7 E/ l- U  g* c; M7 P6 U
码率模式                           : 恒定码率 (CBR)
, q4 b: `" [) b5 R& F: b* {; S! l码率                             : 640 kb/s
8 d- r0 |5 M# J5 a声道数                            : 6 声道9 \: M" J) g; y& ~( v7 r. }
声道格式                           : L R C LFE Ls Rs! V$ R, x% ?- M" E8 I
采样率                            : 48.0 kHz, [) c6 a) V! j  |: I. e
帧率                             : 31.250 FPS (1536 SPF)
0 ~4 Z" ~( I0 {& W' f6 F压缩模式                           : 有损
+ J8 j& u# R1 U. J流大小                            : 436 MiB (100%)
/ w$ [" B7 O; l" {/ ?8 ^8 [服务类别                           : Complete Main
回复 支持 反对

使用道具 举报

初一998181 发表于 2021-5-27 22:50:34

初一998181 9

2021-5-27 22:50:34

michaellv 发表于 2021-5-27 21:498 J1 [1 K# t# U5 \( O- p1 M9 _8 Z
tsmuxer混流加音轨限制很多的,比如两者时长相差太多就会报错(看你的出错信息应该也是属于这种)。其实像 ...
0 x0 E5 y5 G! C0 I6 p" L& O
对了,用 MKVToolNix2820 导入这些音轨,不是无反应,是直接无响应了
回复 支持 反对

使用道具 举报

15109259550 发表于 2021-5-27 23:39:50 Hao4K手机版

15109259550 10

2021-5-27 23:39:50

初一998181 发表于 2021-5-27 22:37
# I' S% _. T  |$ y) H2 |2 b3 s出错的DTS音轨是内录2.0公映国语其他轨道为原版英语DTS分离,编辑重混后的DTS(半码),具体参数为音频 # ...
0 p+ h/ |$ z/ k: n9 h2 J" r
那就不清楚了,可以先用mkvtoolnix封装测试,可以了就是tsmuxer软件问题,2个软件都不行可能音轨有问题
回复 支持 反对

使用道具 举报

15109259550 发表于 2021-5-27 23:56:57 Hao4K手机版

15109259550 11

2021-5-27 23:56:57

初一998181 发表于 2021-5-27 22:37
9 I3 ]" m( M  D. h: p! W) H- H出错的DTS音轨是内录2.0公映国语其他轨道为原版英语DTS分离,编辑重混后的DTS(半码),具体参数为音频 # ...
5 W+ p/ W8 h% g) V( b* ?, f
https://pan.baidu.com/s/1IVe1doTas4yrXasfAvtOkQ提取码:e134   里面有最新的mkvtoolnix和tsmuxer也可以测试下
回复 支持 反对

使用道具 举报

michaellv 发表于 2021-5-28 11:27:16

michaellv 12

2021-5-28 11:27:16

初一998181 发表于 2021-5-27 22:40- S5 R) W. F7 j1 m- I% r8 Y, k; m
我试过用 MKVToolNix2820 导入这些音轨,直接就是无反应了,也没有什么提示!如果说是因为时长相差太多的 ...
" _+ q2 \5 A# ^( e! v: T
欢乐好声音我电脑上正好有自制的REMUX UHD版,就当场测试给你看:& S- z) K& Y/ |: _. V" G, \
X00.jpg X01.jpg X03.jpg
1 n1 H1 {5 y: {8 O* G用mkvtools混了你所说的国语和粤语,完全没有问题啊!用mkvtools玩混流我还没碰到过音轨不能加的案例。
7 a2 M% c8 w9 \! i# [2 X! o- b9 }
回复 支持 反对

使用道具 举报

初一998181 发表于 2021-5-28 23:14:33

初一998181 13

2021-5-28 23:14:33

15109259550 发表于 2021-5-27 23:39
- d8 K/ u- ]- v: e& S2 l  C" N那就不清楚了,可以先用mkvtoolnix封装测试,可以了就是tsmuxer软件问题,2个软件都不行可能音轨有问题

8 A% W# j2 F' w7 z/ P7 x谢谢了!我原来用mkvtoolnix测试过了导入时软件就无响应了,我的TS也是最新的,照这样应该是音轨有问题了吧!
回复 支持 反对

使用道具 举报

初一998181 发表于 2021-5-28 23:21:38

初一998181 14

2021-5-28 23:21:38

michaellv 发表于 2021-5-28 11:27
% R( r& r1 w" w& \% w& I欢乐好声音我电脑上正好有自制的REMUX UHD版,就当场测试给你看:" Z6 S; i9 k' P/ j6 G
1 r$ ~& l5 x5 k: {8 {6 b: E
用mkvtools混了你所说的国语和粤语 ...
2 p- m$ X/ f6 @* Q$ V
你的国、粤音轨不知道是不是和我下的一样的,我再重新下一遍看看,也有可能是下载中出错了吧!我以前也基本没试过添加音轨会出错的,也是最近这几天才这样,而且也不单单是一个音轨,而是两部电影,下的三个人制作的音轨,其中就大部份出错,又不是同一时间下的,有一个人制作的,其中的国语mka的没问题,粤语mka出错,国、粤ac3都出错,这就很诡异了!
回复 支持 反对

使用道具 举报

15109259550 发表于 2021-5-28 23:25:14 Hao4K手机版

15109259550 15

2021-5-28 23:25:14

初一998181 发表于 2021-5-28 23:14
' K; o1 L2 [  @( @( l1 ^谢谢了!我原来用mkvtoolnix测试过了导入时软件就无响应了,我的TS也是最新的,照这样应该是音轨有问题了 ...
4 @. a4 |3 w, @
可能吧,你播放音频试听下,另外你ts软件版本还是20年的吧,网盘里是21年4月30号的,自带中文
回复 支持 反对

使用道具 举报

初一998181 发表于 2021-5-31 13:20:16

初一998181 16

2021-5-31 13:20:16

问题解决了!原来是我在用U盘转存的过程中出错了吧,但没有任何出错的提示、文件也没显示有出错!所以之前一直没有往这方面想过。今天试了一下原来下载电脑上的音轨!全部都没有任何问题。谢谢15109259550 和michaellv 两位热心大神。
回复 支持 反对

使用道具 举报

   发表回复

您需要登录后才可以回帖 登录 | 立即注册

返回列表 本版积分规则

:
新手上路
:
未填写

主题

帖子

积分13

关闭

站内通知上一条 /1 下一条

  • 在线客服

  • 返回顶部