微博 微信

Hao4K影音

电影频道
电影封面:
片  名: 勇者无惧4k
电影分类: 剧情 历史 传记 
国  家: 美国 
年  代: 90年代
分 辨 率: 4K(3840x2160)
电影格式: MKV|REMUX 
画质标准: SDR 
音质编码: DTS-HD Master Audio 
电影声道: 5.1声道 
帧数/FPS: 23.976 帧
电影语言: 英文原版 
资源大小: 20.27 GB
导  演: 史蒂文·斯皮尔伯格
豆瓣评分: 8.2 分
中文字幕: /thread-57816-1-1.html
剧情简介:  1839年,运送黑奴的阿米斯塔德号在大洋上遭遇暴风雨,黑奴们趁乱暴动,将船员砍杀,控制了阿米斯塔德号后试图驶回家乡,然而六周后,他们阴差阳错抵达了美国,幸存下来的44名黑奴被美国军方逮捕,并将面临杀人罪的指控。此时,西班牙女王向美国总统要求引渡这些属于西班牙的黑奴;两名海军军官也宣称黑奴是他们的战利品;另有人拿出了在古巴购买这些黑奴的证明。各方争执之际,废奴会的领袖之一、同时也是船公司负责人的乔德森(摩根·弗里曼 Morgan Freeman 饰)与友人塔培安雇佣了律师罗杰,希望证明这些黑奴来自非洲,从而在废奴观念深入人心的大环境下为他们谋取自由……
断锁怒潮 / 阿米斯塔德号 / 阿米斯塔德/勇者无惧4k Amistad.1997.2160p.WEB-DL.x265.8bit.SDR.DTS-HD.MA.5.1.4k电影信息
  1. Video
  2. ID : 1
  3. Format : HEVC
  4. Format/Info : High Efficiency Video Coding
  5. Format profile : Main@L5@High
  6. Codec ID : V_MPEGH/ISO/HEVC
  7. Duration : 2 h 34 min
  8. Bit rate : 14.9 Mb/s
  9. Width : 3 840 pixels
  10. Height : 2 160 pixels
  11. Display aspect ratio : 16:9
  12. Frame rate mode : Constant
  13. Frame rate : 23.976 (24000/1001) FPS
  14. Color space : YUV
  15. Chroma subsampling : 4:2:0
  16. Bit depth : 8 bits
  17. Bits/(Pixel*Frame) : 0.075
  18. Stream size : 16.1 GiB (80%)
  19. Default : Yes
  20. Forced : No
  21. Color range : Limited
  22. Color primaries : BT.709
  23. Transfer characteristics : BT.709
  24. Matrix coefficients : BT.709

  25. Audio #1
  26. ID : 2
  27. Format : DTS XLL
  28. Format/Info : Digital Theater Systems
  29. Commercial name : DTS-HD Master Audio
  30. Codec ID : A_DTS
  31. Duration : 2 h 34 min
  32. Bit rate mode : Variable
  33. Bit rate : 3 366 kb/s
  34. Channel(s) : 6 channels
  35. Channel layout : C L R Ls Rs LFE
  36. Sampling rate : 48.0 kHz
  37. Frame rate : 93.750 FPS (512 SPF)
  38. Bit depth : 24 bits
  39. Compression mode : Lossless
  40. Stream size : 3.64 GiB (18%)
  41. Title : DTS-HD MA 5.1
  42. Language : English
  43. Default : Yes
  44. Forced : No

  45. Audio #2
  46. ID : 3
  47. Format : AAC LC
  48. Format/Info : Advanced Audio Codec Low Complexity
  49. Codec ID : A_AAC-2
  50. Duration : 2 h 34 min
  51. Bit rate : 445 kb/s
  52. Channel(s) : 6 channels
  53. Channel layout : C L R Ls Rs LFE
  54. Sampling rate : 48.0 kHz
  55. Frame rate : 46.875 FPS (1024 SPF)
  56. Compression mode : Lossy
  57. Stream size : 493 MiB (2%)
  58. Language : English
  59. Default : No
  60. Forced : No

  61. Text
  62. ID : 4
  63. Format : UTF-8
  64. Codec ID : S_TEXT/UTF8
  65. Codec ID/Info : UTF-8 Plain Text
  66. Duration : 2 h 27 min
  67. Bit rate : 53 b/s
  68. Count of elements : 1534
  69. Stream size : 57.8 KiB (0%)
  70. Title : English
  71. Language : English
  72. Default : No
  73. Forced : No

  74. Menu
  75. 00:00:00.000 : 00:00:00.000
  76. 00:05:21.738 : 00:05:21.738
  77. 00:13:04.784 : 00:13:04.784
  78. 00:22:51.453 : 00:22:51.453
  79. 00:28:03.974 : 00:28:03.974
  80. 00:36:28.645 : 00:36:28.645
  81. 00:46:25.449 : 00:46:25.449
  82. 00:50:00.331 : 00:50:00.331
  83. 01:00:14.736 : 01:00:14.736
  84. 01:08:57.884 : 01:08:57.884
  85. 01:16:28.083 : 01:16:28.083
  86. 01:26:34.106 : 01:26:34.106
  87. 01:32:00.890 : 01:32:00.890
  88. 01:41:00.680 : 01:41:00.680
  89. 01:45:48.884 : 01:45:48.884
  90. 01:49:31.690 : 01:49:31.690
  91. 01:54:32.991 : 01:54:32.991
  92. 01:59:41.549 : 01:59:41.549
  93. 02:01:57.185 : 02:01:57.185
  94. 02:08:11.225 : 02:08:11.225
  95. 02:13:57.613 : 02:13:57.613
  96. 02:18:53.325 : 02:18:53.325
  97. 02:23:55.377 : 02:23:55.377
  98. 02:27:47.650 : 02:27:47.650
复制代码


断锁怒潮 / 阿米斯塔德号 / 阿米斯塔德/勇者无惧4k Amistad.1997.2160p.WEB-DL.x265.8bit.SDR.DTS-HD.MA.5.1.4k电影下载

勇者无惧4k Amistad.1997.2160p.WEB-DL.x265.8bit.SDR.DTS-HD.MA.5.1【20.27 GB】
[Hao4k]勇者无惧4k Amistad.1997.2160p.WEB-DL.x265.8bit.SDR.DTS-HD.MA.5.1-SWTYBLZ.torrent (51.32 KB, 售价: 2 K币)
回复

使用道具 举报

全部回复12

concord3303 发表于 2021-5-28 00:03:57

concord3303 2

2021-5-28 00:03:57


经典,感谢分享
回复 支持 反对

使用道具 举报

dyczw 发表于 2021-5-28 06:35:45

dyczw 3

2021-5-28 06:35:45

感谢分享,辛苦了
回复 支持 反对

使用道具 举报

xin2niu 发表于 2021-5-28 07:39:45

xin2niu 4

2021-5-28 07:39:45

谢谢分享
回复 支持 反对

使用道具 举报

农夫舅舅 发表于 2021-5-28 08:40:02 Hao4K手机版

农夫舅舅 5

2021-5-28 08:40:02

这个估计好看
回复 支持 反对

使用道具 举报

bbgrnnji 发表于 2021-5-28 09:07:33

bbgrnnji 6

2021-5-28 09:07:33

总算看到好片了
回复 支持 反对

使用道具 举报

lub 发表于 2021-5-28 20:03:35

lub 7

2021-5-28 20:03:35

谢谢分享
回复 支持 反对

使用道具 举报

19820578081 发表于 2021-5-29 17:42:38

19820578081 8

2021-5-29 17:42:38

谢谢分享。下载看看
回复 支持 反对

使用道具 举报

都胸都胸 发表于 2021-5-31 12:58:46

都胸都胸 9

2021-5-31 12:58:46

这个就很厉害了
回复 支持 反对

使用道具 举报

wdxmsun 发表于 2021-6-2 23:20:40

wdxmsun 10

2021-6-2 23:20:40

感谢分享
回复 支持 反对

使用道具 举报

mo814876560 发表于 2021-6-4 08:40:43

mo814876560 11

2021-6-4 08:40:43

谢谢楼主分享。
回复 支持 反对

使用道具 举报

hye680i 发表于 2021-6-12 14:42:43

hye680i 12

2021-6-12 14:42:43

感谢分享
回复 支持 反对

使用道具 举报

农夫舅舅 发表于 2021-6-13 15:27:24

农夫舅舅 13

2021-6-13 15:27:24

大导演拍的错不了
回复 支持 反对

使用道具 举报

   发表回复

您需要登录后才可以回帖 登录 | 立即注册

返回列表 本版积分规则

  • 在线客服

  • 返回顶部