微博 微信

Hao4K影音

电影频道
电影封面:
片  名: 蚁哥正传4k
电影分类: 冒险 喜剧 动画 
国  家: 美国 
年  代: 90年代
分 辨 率: 4K(3840x2160)
电影格式: MKV|REMUX 
画质标准: SDR 
音质编码: DTS-HD Master Audio 
电影声道: 5.1声道 
帧数/FPS: 23.976 帧
电影语言: 英文原版 
资源大小: 11.41 GB
导  演: 埃里克·达尼尔 / 提姆·约翰森
豆瓣评分: 7.0 分
中文字幕: /thread-57876-1-1.html
剧情简介:  蚂蚁Z对蚂蚁王国的现状十分不满,但天生胆小的他也只能在一边唠唠叨叨,幸好友兵蚁威的保护,瘦弱的Z才不会被欺负。一次偶然机会,Z遇上了逃跑出皇宫的公主宝拉,宝拉因为被母后安排即将与曼将军结婚而不满才离家出走的。在俱乐部里,宝拉主动邀请不起眼的Z跳舞;Z无意中得知了宝拉的身份,跑去和威调换了身份假扮士兵为了能在阅兵中和公主见面。曼将军不仅是个战争狂人,对蚂蚁王国还有着不可告人的阴谋。Z被派上了战场,靠躲在坑内逃过了一劫,被曼将军奉为英雄。但曼将军看出了Z暗恋公主,想把他杀害。情急之下,Z绑架公主逃了出去……
小蚁雄兵 / 蚂蚁/蚁哥正传4k Antz.1998.2160p.WEB-DL.x265.8bit.SDR.DTS-HD.MA.5.1 4k电影信息
  1. Video
  2. ID : 1
  3. Format : HEVC
  4. Format/Info : High Efficiency Video Coding
  5. Format profile : Main@L5@High
  6. Codec ID : V_MPEGH/ISO/HEVC
  7. Duration : 1 h 23 min
  8. Bit rate : 14.9 Mb/s
  9. Width : 3 840 pixels
  10. Height : 2 160 pixels
  11. Display aspect ratio : 16:9
  12. Frame rate mode : Constant
  13. Frame rate : 23.976 (24000/1001) FPS
  14. Color space : YUV
  15. Chroma subsampling : 4:2:0
  16. Bit depth : 8 bits
  17. Bits/(Pixel*Frame) : 0.075
  18. Stream size : 8.70 GiB (76%)
  19. Default : Yes
  20. Forced : No
  21. Color range : Limited
  22. Color primaries : BT.709
  23. Transfer characteristics : BT.709
  24. Matrix coefficients : BT.709

  25. Audio #1
  26. ID : 2
  27. Format : DTS XLL
  28. Format/Info : Digital Theater Systems
  29. Commercial name : DTS-HD Master Audio
  30. Codec ID : A_DTS
  31. Duration : 1 h 23 min
  32. Bit rate mode : Variable
  33. Bit rate : 4 207 kb/s
  34. Channel(s) : 6 channels
  35. Channel layout : C L R Ls Rs LFE
  36. Sampling rate : 48.0 kHz
  37. Frame rate : 93.750 FPS (512 SPF)
  38. Bit depth : 24 bits
  39. Compression mode : Lossless
  40. Delay relative to video : 4 ms
  41. Stream size : 2.45 GiB (21%)
  42. Title : DTS-HD MA 5.1
  43. Language : English
  44. Default : Yes
  45. Forced : No

  46. Audio #2
  47. ID : 3
  48. Format : AAC LC
  49. Format/Info : Advanced Audio Codec Low Complexity
  50. Codec ID : A_AAC-2
  51. Duration : 1 h 23 min
  52. Bit rate : 445 kb/s
  53. Channel(s) : 6 channels
  54. Channel layout : C L R Ls Rs LFE
  55. Sampling rate : 48.0 kHz
  56. Frame rate : 46.875 FPS (1024 SPF)
  57. Compression mode : Lossy
  58. Stream size : 265 MiB (2%)
  59. Language : English
  60. Default : No
  61. Forced : No

  62. Text
  63. ID : 4
  64. Format : UTF-8
  65. Codec ID : S_TEXT/UTF8
  66. Codec ID/Info : UTF-8 Plain Text
  67. Duration : 1 h 18 min
  68. Bit rate : 79 b/s
  69. Count of elements : 1140
  70. Stream size : 46.1 KiB (0%)
  71. Title : English
  72. Language : English
  73. Default : Yes
  74. Forced : No

  75. Menu
  76. 00:00:00.000 : Chapter 1
  77. 00:03:16.988 : Chapter 2
  78. 00:08:27.340 : Chapter 3
  79. 00:11:20.096 : Chapter 4
  80. 00:17:46.232 : Chapter 5
  81. 00:20:42.992 : Chapter 6
  82. 00:24:53.492 : Chapter 7
  83. 00:29:05.535 : Chapter 8
  84. 00:33:13.408 : Chapter 9
  85. 00:36:04.037 : Chapter 10
  86. 00:42:42.977 : Chapter 11
  87. 00:48:26.070 : Chapter 12
  88. 00:56:07.739 : Chapter 13
  89. 00:58:58.660 : Chapter 14
  90. 01:04:57.936 : Chapter 15
  91. 01:07:44.978 : Chapter 16
  92. 01:13:33.826 : Chapter 17
  93. 01:18:11.103 : Chapter 18
复制代码


小蚁雄兵 / 蚂蚁/蚁哥正传4k Antz.1998.2160p.WEB-DL.x265.8bit.SDR.DTS-HD.MA.5.1 4k电影下载

蚁哥正传4k Antz.1998.2160p.WEB-DL.x265.8bit.SDR.DTS-HD.MA.5.1【11.41 GB】
[Hao4k]蚁哥正传4k Antz.1998.2160p.WEB-DL.x265.8bit.SDR.DTS-HD.MA.5.1-SWTYBLZ.torrent (57.68 KB)
回复

使用道具 举报

全部回复3

dyczw 发表于 2021-5-28 06:35:06

dyczw 2

2021-5-28 06:35:06

感谢分享,辛苦了
回复 支持 反对

使用道具 举报

huan221 发表于 2021-5-28 09:26:53

huan221 3

2021-5-28 09:26:53

xx谢谢 给女儿下一个 周末看看
回复 支持 反对

使用道具 举报

dragon_walk 发表于 2021-5-28 09:56:28

dragon_walk 4

2021-5-28 09:56:28

谢谢分享。下载看看
回复 支持 反对

使用道具 举报

   发表回复

您需要登录后才可以回帖 登录 | 立即注册

返回列表 本版积分规则

  • 在线客服

  • 返回顶部