微博 微信

Hao4K影音

电影频道
电影封面:
片  名: 宾虚4k
电影分类: 冒险 剧情 历史 
国  家: 美国 
年  代: 2016年
分 辨 率: 4K(3840x2160)
电影格式: MKV|REMUX 
画质标准: SDR 
音质编码: DTS-HD Master Audio 
电影声道: 7.1声道 
帧数/FPS: 23.976 帧
电影语言: 英文原版 
资源大小: 16.67 GB
导  演: 提莫·贝克曼贝托夫
豆瓣评分: 5.7 分
中文字幕: /thread-57796-1-1.html
剧情简介: 《宾虚:一个基督徒的故事》虚构了一个犹太王子——犹大·宾虚(Judah Ben-Hur),以一个类似《基督山伯爵》的故事为我们展现了他因与好友信念不同而遭到陷害、继而流放、被卖为奴、成为角斗士回乡复仇,最终成为一名耶稣信徒的曲折而传奇的一生。
  新版《宾虚》由《刺客联盟》(Wanted)导演提莫·贝克曼贝托夫(Timur Bekmambetov)导演,剧本由《为奴十二年》的编剧约翰·雷德利(John Ridley)在基思·克拉克(Keith Clarke)初稿剧本基础上创作。
宾汉(台)/宾虚4k Ben.Hur.2016.2160p.WEB-DL.x265.8bit.SDR.DTS-HD.MA.7.1 4k电影信息
  1. Video
  2. ID : 1
  3. Format : HEVC
  4. Format/Info : High Efficiency Video Coding
  5. Format profile : Main@L5@High
  6. Codec ID : V_MPEGH/ISO/HEVC
  7. Duration : 2 h 3 min
  8. Bit rate : 13.9 Mb/s
  9. Width : 3 840 pixels
  10. Height : 2 160 pixels
  11. Display aspect ratio : 16:9
  12. Frame rate mode : Constant
  13. Frame rate : 23.976 (24000/1001) FPS
  14. Color space : YUV
  15. Chroma subsampling : 4:2:0
  16. Bit depth : 8 bits
  17. Bits/(Pixel*Frame) : 0.070
  18. Stream size : 11.9 GiB (72%)
  19. Default : Yes
  20. Forced : No

  21. Audio #1
  22. ID : 2
  23. ID in the original source medium : 4352 (0x1100)
  24. Format : DTS XLL
  25. Format/Info : Digital Theater Systems
  26. Commercial name : DTS-HD Master Audio
  27. Codec ID : A_DTS
  28. Duration : 2 h 3 min
  29. Bit rate mode : Variable
  30. Bit rate : 5 041 kb/s
  31. Channel(s) : 8 channels
  32. Channel layout : C L R LFE Lb Rb Lss Rss
  33. Sampling rate : 48.0 kHz
  34. Frame rate : 93.750 FPS (512 SPF)
  35. Bit depth : 24 bits
  36. Compression mode : Lossless
  37. Delay relative to video : 3 ms
  38. Stream size : 4.34 GiB (26%)
  39. Title : DTS-HD MA 7.1
  40. Language : English
  41. Default : Yes
  42. Forced : No
  43. Original source medium : Blu-ray

  44. Audio #2
  45. ID : 3
  46. Format : AAC LC
  47. Format/Info : Advanced Audio Codec Low Complexity
  48. Codec ID : A_AAC-2
  49. Duration : 2 h 3 min
  50. Bit rate : 445 kb/s
  51. Channel(s) : 6 channels
  52. Channel layout : C L R Ls Rs LFE
  53. Sampling rate : 48.0 kHz
  54. Frame rate : 46.875 FPS (1024 SPF)
  55. Compression mode : Lossy
  56. Stream size : 393 MiB (2%)
  57. Title : AAC 5.1
  58. Language : English
  59. Default : No
  60. Forced : No

  61. Text
  62. ID : 4
  63. Format : UTF-8
  64. Codec ID : S_TEXT/UTF8
  65. Codec ID/Info : UTF-8 Plain Text
  66. Duration : 1 h 55 min
  67. Bit rate : 53 b/s
  68. Count of elements : 1729
  69. Stream size : 44.8 KiB (0%)
  70. Title : English
  71. Language : English
  72. Default : Yes
  73. Forced : No

  74. Menu
  75. 00:00:00.000 : Chapter 01
  76. 00:07:03.881 : Chapter 02
  77. 00:15:42.942 : Chapter 03
  78. 00:19:47.895 : Chapter 04
  79. 00:27:25.852 : Chapter 05
  80. 00:33:09.362 : Chapter 06
  81. 00:41:07.214 : Chapter 07
  82. 00:48:20.063 : Chapter 08
  83. 00:55:21.651 : Chapter 09
  84. 01:05:41.228 : Chapter 10
  85. 01:13:15.891 : Chapter 11
  86. 01:22:26.900 : Chapter 12
  87. 01:31:30.193 : Chapter 13
  88. 01:39:55.656 : Chapter 14
  89. 01:46:30.801 : Chapter 15
  90. 01:53:30.136 : Chapter 16
复制代码


宾汉(台)/宾虚4k Ben.Hur.2016.2160p.WEB-DL.x265.8bit.SDR.DTS-HD.MA.7.1 4k电影下载
宾虚4k Ben.Hur.2016.2160p.WEB-DL.x265.8bit.SDR.DTS-HD.MA.7.1 【16.67 GB】
[Hao4k]宾虚4k Ben.Hur.2016.2160p.WEB-DL.x265.8bit.SDR.DTS-HD.MA.7.1-SWTYBLZ.torrent (84.02 KB)
回复

使用道具 举报

全部回复21

kltan9988 发表于 2021-5-28 00:09:16

kltan9988 2

2021-5-28 00:09:16

谢谢分享
回复 支持 反对

使用道具 举报

dyczw 发表于 2021-5-28 06:34:45

dyczw 3

2021-5-28 06:34:45

感谢分享,辛苦了
回复 支持 反对

使用道具 举报

世爵39 发表于 2021-5-28 08:19:40

世爵39 4

2021-5-28 08:19:40

这影片好似也是翻拍的
回复 支持 反对

使用道具 举报

世爵39 发表于 2021-5-28 08:22:30

世爵39 5

2021-5-28 08:22:30

下载看看不知翻拍如何
回复 支持 反对

使用道具 举报

dragon_walk 发表于 2021-5-28 09:57:59

dragon_walk 6

2021-5-28 09:57:59

谢谢分享。下载看看
回复 支持 反对

使用道具 举报

majun0313 发表于 2021-5-28 20:45:53

majun0313 7

2021-5-28 20:45:53

我们一起学习
回复 支持 反对

使用道具 举报

唐人啸 发表于 2021-5-29 11:45:22

唐人啸 8

2021-5-29 11:45:22

谢谢分享。下载看看
回复 支持 反对

使用道具 举报

ahs371 发表于 2021-5-29 18:03:29

ahs371 9

2021-5-29 18:03:29

感谢分享!!!
回复 支持 反对

使用道具 举报

xia3xiang 发表于 2021-5-29 19:45:25

xia3xiang 10

2021-5-29 19:45:25

谢谢发片
回复 支持 反对

使用道具 举报

ws128888 发表于 2021-5-29 21:12:39

ws128888 11

2021-5-29 21:12:39

歪瑞古德
回复 支持 反对

使用道具 举报

358567082 发表于 2021-5-31 14:39:45

358567082 12

2021-5-31 14:39:45

宾虚的版本很多啊,最早的是一部无声显示字幕的黑白片。还有一部迷你剧版。
回复 支持 反对

使用道具 举报

kru 发表于 2021-6-2 10:07:31

kru 13

2021-6-2 10:07:31

支持!!!
回复 支持 反对

使用道具 举报

撒加 发表于 2021-6-2 13:58:32

撒加 14

2021-6-2 13:58:32

评分好像不太高啊,不过很喜欢这种题材的片子
回复 支持 反对

使用道具 举报

fanfanfan 发表于 2021-6-2 16:26:59

fanfanfan 15

2021-6-2 16:26:59

非常 喜欢 这个片子,感谢分享!!!
回复 支持 反对

使用道具 举报

shjlwj 发表于 2021-6-2 17:11:15

shjlwj 16

2021-6-2 17:11:15

新人来到,感谢分享。。
回复 支持 反对

使用道具 举报

acball 发表于 2021-6-4 14:51:06

acball 17

2021-6-4 14:51:06

谢谢分享
回复 支持 反对

使用道具 举报

xjj3133xjj 发表于 2021-6-5 09:18:02

xjj3133xjj 18

2021-6-5 09:18:02

喜欢 这个片子,感谢分享!!!
回复 支持 反对

使用道具 举报

   发表回复

您需要登录后才可以回帖 登录 | 立即注册

返回列表 本版积分规则

关闭

站内通知上一条 /1 下一条

  • 在线客服

  • 返回顶部