微博 微信

Hao4K影音

电影频道
电影封面:
片  名: 少数派报告4k
电影分类: 科幻 
国  家: 美国 
年  代: 00年代
分 辨 率: 4K(3840x2160)
电影格式: MKV|REMUX 
画质标准: SDR 
音质编码: DTS-HD Master Audio 
电影声道: 5.1声道 
帧数/FPS: 23.976 帧
电影语言: 英文原版 
资源大小: 18.70 GB
导  演: 史蒂文·斯皮尔伯格
豆瓣评分: 7.8 分
中文字幕: /thread-57795-1-1.html
剧情简介: 随着科技的发展,人类发明了能侦察人的脑电波的“聪明”的机器人――“先知”。“先知”能侦察出人的犯罪企图,所以在罪犯犯罪之前,就已经被犯罪预防组织的警察逮捕并获刑。
  乔恩(汤姆•克鲁斯 Tom Cruise 饰)就是犯罪预防组织的一个主管。在一次通过“先知”成功阻止了一起因外遇引起的双人命案之后,乔恩隐约感到了这一套完美的预防犯罪系统中隐含的秘密,那就是少数派报告。原来,共有三个“先知”一起判定一个人是否有杀人企图。当出现分歧时,按少数服从多数原则定案,但最后若证明少数那一方是正确的话,则会秘密保存一份少数派报告。
  乔恩一觉醒来,突然发现自己已是昔日同事的抓捕对象。乔恩唯一的出路就是找到能证明自己清白的那份少数派报告……
关键报告(台) / 未来报告(港)/少数派报告4k Minority.Report.2002.2160p.WEB-DL.x265.8bit.SDR.DTS-HD.MA.5.1.4k电影信息
  1. Video
  2. ID : 1
  3. Format : HEVC
  4. Format/Info : High Efficiency Video Coding
  5. Format profile : Main@L5@High
  6. Codec ID : V_MPEGH/ISO/HEVC
  7. Duration : 2 h 25 min
  8. Bit rate : 15.0 Mb/s
  9. Width : 3 840 pixels
  10. Height : 2 160 pixels
  11. Display aspect ratio : 16:9
  12. Frame rate mode : Constant
  13. Frame rate : 23.976 (24000/1001) FPS
  14. Color space : YUV
  15. Chroma subsampling : 4:2:0
  16. Bit depth : 8 bits
  17. Bits/(Pixel*Frame) : 0.075
  18. Stream size : 15.2 GiB (81%)
  19. Default : Yes
  20. Forced : No
  21. Color range : Limited
  22. Color primaries : BT.709
  23. Transfer characteristics : BT.709
  24. Matrix coefficients : BT.709

  25. Audio #1
  26. ID : 2
  27. ID in the original source medium : 4352 (0x1100)
  28. Format : DTS XLL
  29. Format/Info : Digital Theater Systems
  30. Commercial name : DTS-HD Master Audio
  31. Codec ID : A_DTS
  32. Duration : 2 h 25 min
  33. Bit rate mode : Variable
  34. Bit rate : 3 015 kb/s
  35. Channel(s) : 6 channels
  36. Channel layout : C L R Ls Rs LFE
  37. Sampling rate : 48.0 kHz
  38. Frame rate : 93.750 FPS (512 SPF)
  39. Bit depth : 24 bits
  40. Compression mode : Lossless
  41. Delay relative to video : 3 ms
  42. Stream size : 3.06 GiB (16%)
  43. Title : DTS-HD MA 5.1
  44. Language : English
  45. Default : Yes
  46. Forced : No
  47. Original source medium : Blu-ray

  48. Audio #2
  49. ID : 3
  50. Format : AAC LC
  51. Format/Info : Advanced Audio Codec Low Complexity
  52. Codec ID : A_AAC-2
  53. Duration : 2 h 25 min
  54. Bit rate : 445 kb/s
  55. Channel(s) : 6 channels
  56. Channel layout : C L R Ls Rs LFE
  57. Sampling rate : 48.0 kHz
  58. Frame rate : 46.875 FPS (1024 SPF)
  59. Compression mode : Lossy
  60. Stream size : 463 MiB (2%)
  61. Title : AAC 5.1
  62. Language : English
  63. Default : No
  64. Forced : No

  65. Text
  66. ID : 4
  67. Format : UTF-8
  68. Codec ID : S_TEXT/UTF8
  69. Codec ID/Info : UTF-8 Plain Text
  70. Duration : 2 h 15 min
  71. Bit rate : 66 b/s
  72. Count of elements : 1722
  73. Stream size : 66.3 KiB (0%)
  74. Title : English
  75. Language : English
  76. Default : Yes
  77. Forced : No

  78. Menu
  79. 00:00:00.000 : Chapter 01
  80. 00:06:47.073 : Chapter 02
  81. 00:14:49.889 : Chapter 03
  82. 00:21:13.021 : Chapter 04
  83. 00:24:43.690 : Chapter 05
  84. 00:29:46.034 : Chapter 06
  85. 00:37:09.518 : Chapter 07
  86. 00:42:42.476 : Chapter 08
  87. 00:51:41.973 : Chapter 09
  88. 00:55:18.606 : Chapter 10
  89. 00:59:57.385 : Chapter 11
  90. 01:05:10.907 : Chapter 12
  91. 01:09:41.927 : Chapter 13
  92. 01:17:00.657 : Chapter 14
  93. 01:22:21.561 : Chapter 15
  94. 01:27:57.897 : Chapter 16
  95. 01:35:42.445 : Chapter 17
  96. 01:39:08.776 : Chapter 18
  97. 01:49:06.206 : Chapter 19
  98. 01:54:02.001 : Chapter 20
  99. 02:01:28.531 : Chapter 21
  100. 02:06:43.095 : Chapter 22
  101. 02:13:11.817 : Chapter 23
  102. 02:15:40.632 : Chapter 24
复制代码

关键报告(台) / 未来报告(港)/少数派报告4k Minority.Report.2002.2160p.WEB-DL.x265.8bit.SDR.DTS-HD.MA.5.1.4k电影下载

少数派报告4k Minority.Report.2002.2160p.WEB-DL.x265.8bit.SDR.DTS-HD.MA.5.1【18.70 GB】
[Hao4k]少数派报告4k Minority.Report.2002.2160p.WEB-DL.x265.8bit.SDR.DTS-HD.MA.5..torrent (94.19 KB, 售价: 2 K币)
回复

使用道具 举报

全部回复37

星月霸天53 发表于 2021-5-27 21:30:07

星月霸天53 2

2021-5-27 21:30:07

经典中经典,  非常好看!!!
回复 支持 1 反对 0

使用道具 举报

xiahua0 发表于 2021-5-27 21:58:20

xiahua0 3

2021-5-27 21:58:20

经典啊
回复 支持 反对

使用道具 举报

lcjckf690629 发表于 2021-5-27 22:05:07

lcjckf690629 4

2021-5-27 22:05:07

这么经典的电影竟然没有看过!
回复 支持 反对

使用道具 举报

movie2006 发表于 2021-5-27 22:20:44

movie2006 5

2021-5-27 22:20:44

期待原版
回复 支持 反对

使用道具 举报

kelann 发表于 2021-5-28 05:28:47

kelann 6

2021-5-28 05:28:47

这是汤哥的经典之作,期待。
回复 支持 反对

使用道具 举报

dyczw 发表于 2021-5-28 06:33:59

dyczw 7

2021-5-28 06:33:59

感谢分享,辛苦了
回复 支持 反对

使用道具 举报

guyver416 发表于 2021-5-28 07:48:14

guyver416 8

2021-5-28 07:48:14

蠻好看的電影,認真推薦一下!
回复 支持 反对

使用道具 举报

lai007 发表于 2021-5-28 08:08:04 Hao4K手机版

lai007 9

2021-5-28 08:08:04

无意中发现 这是一部好电影 !
回复 支持 反对

使用道具 举报

bbgrnnji 发表于 2021-5-28 09:08:21

bbgrnnji 10

2021-5-28 09:08:21

一批好片子啊
回复 支持 反对

使用道具 举报

Ethan2019 发表于 2021-5-28 09:52:55

Ethan2019 11

2021-5-28 09:52:55

好像阿汤哥与斯皮尔伯格就这么合作一次吧?
回复 支持 反对

使用道具 举报

tomcatf 发表于 2021-5-28 10:24:10

tomcatf 12

2021-5-28 10:24:10

不错的片子,内容引人深思,到底谁来当裁判
回复 支持 1 反对 0

使用道具 举报

heijin1016 发表于 2021-5-28 12:37:19

heijin1016 13

2021-5-28 12:37:19

阿汤哥电影这部最爱,可惜不是原盘,原盘我就收藏了。
回复 支持 反对

使用道具 举报

星月霸天53 发表于 2021-5-28 13:03:53

星月霸天53 14

2021-5-28 13:03:53

期待原版
回复 支持 反对

使用道具 举报

lub 发表于 2021-5-28 20:05:05

lub 15

2021-5-28 20:05:05

谢谢分享
回复 支持 反对

使用道具 举报

QQ_1C652F 发表于 2021-5-29 09:26:10

QQ_1C652F 16

2021-5-29 09:26:10

谢谢楼主无私分享
回复 支持 反对

使用道具 举报

hoyu127 发表于 2021-5-29 15:00:38

hoyu127 17

2021-5-29 15:00:38

谢谢分享
回复 支持 反对

使用道具 举报

r31325 发表于 2021-5-29 17:37:36

r31325 18

2021-5-29 17:37:36

阿汤应该是动作片里最帅的
回复 支持 反对

使用道具 举报

   发表回复

您需要登录后才可以回帖 登录 | 立即注册

返回列表 本版积分规则

关闭

站内通知上一条 /1 下一条

  • 在线客服

  • 返回顶部