微博 微信

Hao4K影音

电影频道
电影封面:
片  名: 如果我留下4k
电影分类: 剧情 爱情片 
国  家: 美国 
年  代: 2014年
分 辨 率: 4K(3840x2160)
电影格式: MKV|REMUX 
画质标准: SDR 
音质编码: DTS-HD Master Audio 
电影声道: 5.1声道 
帧数/FPS: 23.976 帧
电影语言: 英文原版 
资源大小: 12.47 GB
导  演: R·J·卡特勒
豆瓣评分: 6.2 分
中文字幕: /thread-58142-1-1.html
剧情简介: 影片改编自美国作家盖尔·福尔曼畅销18个国家的同名小说,天赋超群的古典音乐少女米娅,与家人遭遇严重车祸,在昏迷之中忽然灵魂出窍,在生死之间看见未来。这段预告片中,莫瑞兹朗读小说的序言作为旁白,一边亲眼看着自己倒在车祸现场,躺在手术台上,男友和同伴奔向医院,护士在耳边喃喃低语,一边思索要如何做出这艰难的选择:是随父母离世而去,还是苏醒过来继续人生。
如果我还活着 / 徘徊人世间/如果我留下4k If.I.Stay.2014.2160p.WEB-DL.x265.8bit.SDR.DTS-HD.MA.5.1.4k电影信息
  1. Video
  2. ID : 1
  3. Format : HEVC
  4. Format/Info : High Efficiency Video Coding
  5. Format profile : Main@L5@High
  6. Codec ID : V_MPEGH/ISO/HEVC
  7. Duration : 1 h 46 min
  8. Bit rate : 13.0 Mb/s
  9. Width : 3 840 pixels
  10. Height : 2 160 pixels
  11. Display aspect ratio : 16:9
  12. Frame rate mode : Constant
  13. Frame rate : 23.976 (24000/1001) FPS
  14. Color space : YUV
  15. Chroma subsampling : 4:2:0
  16. Bit depth : 8 bits
  17. Bits/(Pixel*Frame) : 0.065
  18. Stream size : 9.67 GiB (78%)
  19. Default : Yes
  20. Forced : No

  21. Audio #1
  22. ID : 2
  23. ID in the original source medium : 4352 (0x1100)
  24. Format : DTS XLL
  25. Format/Info : Digital Theater Systems
  26. Commercial name : DTS-HD Master Audio
  27. Codec ID : A_DTS
  28. Duration : 1 h 46 min
  29. Bit rate mode : Variable
  30. Bit rate : 3 310 kb/s
  31. Channel(s) : 6 channels
  32. Channel layout : C L R Ls Rs LFE
  33. Sampling rate : 48.0 kHz
  34. Frame rate : 93.750 FPS (512 SPF)
  35. Bit depth : 24 bits
  36. Compression mode : Lossless
  37. Delay relative to video : 1 s 0 ms
  38. Stream size : 2.47 GiB (20%)
  39. Title : DTS-HD MA 5.1
  40. Language : English
  41. Default : Yes
  42. Forced : No
  43. Original source medium : Blu-ray

  44. Audio #2
  45. ID : 3
  46. Format : AAC LC
  47. Format/Info : Advanced Audio Codec Low Complexity
  48. Codec ID : A_AAC-2
  49. Duration : 1 h 46 min
  50. Bit rate : 445 kb/s
  51. Channel(s) : 6 channels
  52. Channel layout : C L R Ls Rs LFE
  53. Sampling rate : 48.0 kHz
  54. Frame rate : 46.875 FPS (1024 SPF)
  55. Compression mode : Lossy
  56. Stream size : 340 MiB (3%)
  57. Title : AAC 5.1
  58. Language : English
  59. Default : No
  60. Forced : No

  61. Text
  62. ID : 4
  63. Format : UTF-8
  64. Codec ID : S_TEXT/UTF8
  65. Codec ID/Info : UTF-8 Plain Text
  66. Duration : 1 h 45 min
  67. Bit rate : 66 b/s
  68. Count of elements : 1765
  69. Stream size : 51.6 KiB (0%)
  70. Title : English
  71. Language : English
  72. Default : Yes
  73. Forced : No

  74. Menu
  75. 00:00:00.000 : Chapter 01
  76. 00:03:20.366 : Chapter 02
  77. 00:07:23.901 : Chapter 03
  78. 00:11:31.607 : Chapter 04
  79. 00:14:43.716 : Chapter 05
  80. 00:19:12.484 : Chapter 06
  81. 00:23:19.606 : Chapter 07
  82. 00:25:19.267 : Chapter 08
  83. 00:27:26.394 : Chapter 09
  84. 00:30:45.969 : Chapter 10
  85. 00:32:11.596 : Chapter 11
  86. 00:34:38.367 : Chapter 12
  87. 00:37:21.906 : Chapter 13
  88. 00:40:41.188 : Chapter 14
  89. 00:44:02.222 : Chapter 15
  90. 00:46:58.899 : Chapter 16
  91. 00:49:07.819 : Chapter 17
  92. 00:52:06.331 : Chapter 18
  93. 00:55:43.298 : Chapter 19
  94. 00:59:01.579 : Chapter 20
  95. 01:00:42.347 : Chapter 21
  96. 01:05:39.310 : Chapter 22
  97. 01:10:10.039 : Chapter 23
  98. 01:13:48.924 : Chapter 24
  99. 01:16:18.407 : Chapter 25
  100. 01:18:54.730 : Chapter 26
  101. 01:24:05.415 : Chapter 27
  102. 01:27:44.467 : Chapter 28
  103. 01:29:50.176 : Chapter 29
  104. 01:33:37.028 : Chapter 30
  105. 01:38:16.307 : Chapter 31
  106. 01:40:25.269 : Chapter 32
复制代码


如果我还活着 / 徘徊人世间/如果我留下4k If.I.Stay.2014.2160p.WEB-DL.x265.8bit.SDR.DTS-HD.MA.5.1.4k电影下载

如果我留下4k If.I.Stay.2014.2160p.WEB-DL.x265.8bit.SDR.DTS-HD.MA.5.1【12.47 GB】
[Hao4k]如果我留下4k If.I.Stay.2014.2160p.WEB-DL.x265.8bit.SDR.DTS-HD.MA.5.1-SWTY.torrent (63.01 KB)
回复

使用道具 举报

全部回复18

yangly 发表于 2021-5-28 08:25:39

yangly 2

2021-5-28 08:25:39

感谢分享
回复 支持 反对

使用道具 举报

dragon_walk 发表于 2021-5-28 09:59:10

dragon_walk 3

2021-5-28 09:59:10

谢谢分享。下载看看。免费真好
回复 支持 反对

使用道具 举报

junlee 发表于 2021-5-28 18:18:13

junlee 4

2021-5-28 18:18:13

谢谢·楼主分享好片,看内容介绍好像蛮好看滴!
回复 支持 反对

使用道具 举报

littlecrab 发表于 2021-5-28 19:03:34

littlecrab 5

2021-5-28 19:03:34

非常感谢分享!!
回复 支持 反对

使用道具 举报

土豆呆呆 发表于 2021-5-29 09:45:53

土豆呆呆 6

2021-5-29 09:45:53

免费就是好
回复 支持 反对

使用道具 举报

hoyu127 发表于 2021-5-29 14:30:34

hoyu127 7

2021-5-29 14:30:34

谢谢分享
回复 支持 反对

使用道具 举报

guodong 发表于 2021-5-29 21:47:59

guodong 8

2021-5-29 21:47:59


非常感谢分享!!
回复 支持 反对

使用道具 举报

jm_y0706 发表于 2021-5-30 12:52:33

jm_y0706 9

2021-5-30 12:52:33

谢谢楼主免费分享!
回复 支持 反对

使用道具 举报

馒头哥哥 发表于 2021-5-30 16:33:39

馒头哥哥 10

2021-5-30 16:33:39

谢谢楼主分享
回复 支持 反对

使用道具 举报

世爵39 发表于 2021-5-31 08:56:31

世爵39 11

2021-5-31 08:56:31

好浪漫的影片
回复 支持 反对

使用道具 举报

wahaha1213145 发表于 2021-5-31 14:13:44

wahaha1213145 12

2021-5-31 14:13:44

谢谢楼主免费分享!
回复 支持 反对

使用道具 举报

散步的人 发表于 2021-6-2 09:42:20

散步的人 13

2021-6-2 09:42:20

感谢分享
回复 支持 反对

使用道具 举报

xjj3133xjj 发表于 2021-6-3 08:03:48

xjj3133xjj 14

2021-6-3 08:03:48


谢谢分享
回复 支持 反对

使用道具 举报

lovvc15 发表于 2021-6-3 20:33:11

lovvc15 15

2021-6-3 20:33:11

感谢楼主
回复 支持 反对

使用道具 举报

mo814876560 发表于 2021-6-4 08:38:15

mo814876560 16

2021-6-4 08:38:15

谢谢楼主分享。
回复 支持 反对

使用道具 举报

mo814876560 发表于 2021-6-5 09:39:30

mo814876560 17

2021-6-5 09:39:30

感谢楼主分享!
回复 支持 反对

使用道具 举报

fialee 发表于 2021-6-5 13:02:18

fialee 18

2021-6-5 13:02:18

感谢分享,字幕在哪里找
回复 支持 反对

使用道具 举报

   发表回复

您需要登录后才可以回帖 登录 | 立即注册

返回列表 本版积分规则

关闭

站内通知上一条 /1 下一条

  • 在线客服

  • 返回顶部