微博 微信

Hao4K影音

电影频道
电影封面:
片  名: 邻居大战4k
电影分类: 喜剧 
国  家: 美国 
年  代: 2014年
分 辨 率: 4K(3840x2160)
电影格式: MKV|REMUX 
画质标准: SDR 
音质编码: DTS-HD Master Audio 
电影声道: 5.1声道 
帧数/FPS: 23.976 帧
电影语言: 英文原版 
资源大小: 12.57 GB
导  演: 尼古拉斯·斯托勒
豆瓣评分: 6.2 分
中文字幕: -
剧情简介:  影片讲述了一个热血又放荡不羁的青年,在几次巧合之下无意中影响了邻居一家生活的故事。塞斯·罗根与萝丝·拜恩在片中饰演这对新生儿年轻夫妇,而扎克·埃夫隆饰演的公子哥这二货的节奏将会给罗根夫妇惹不少麻烦。v
贱邻50(港) / 恶邻缠身(台) / 恶邻居 / Bad Neighbours/邻居大战4k Neighbors.2014.2160p.WEB-DL.x265.8bit.SDR.DTS-HD.MA.5.1.4k电影信息
  1. Video
  2. ID : 1
  3. Format : HEVC
  4. Format/Info : High Efficiency Video Coding
  5. Format profile : Main@L5@High
  6. Codec ID : V_MPEGH/ISO/HEVC
  7. Duration : 1 h 36 min
  8. Bit rate : 14.5 Mb/s
  9. Width : 3 840 pixels
  10. Height : 2 160 pixels
  11. Display aspect ratio : 16:9
  12. Frame rate mode : Constant
  13. Frame rate : 23.976 (24000/1001) FPS
  14. Color space : YUV
  15. Chroma subsampling : 4:2:0
  16. Bit depth : 8 bits
  17. Bits/(Pixel*Frame) : 0.073
  18. Stream size : 9.81 GiB (78%)
  19. Default : Yes
  20. Forced : No
  21. Color range : Limited
  22. Color primaries : BT.709
  23. Transfer characteristics : BT.709
  24. Matrix coefficients : BT.709

  25. Audio #1
  26. ID : 2
  27. Format : DTS XLL
  28. Format/Info : Digital Theater Systems
  29. Commercial name : DTS-HD Master Audio
  30. Codec ID : A_DTS
  31. Duration : 1 h 36 min
  32. Bit rate mode : Variable
  33. Bit rate : 3 633 kb/s
  34. Channel(s) : 6 channels
  35. Channel layout : C L R Ls Rs LFE
  36. Sampling rate : 48.0 kHz
  37. Frame rate : 93.750 FPS (512 SPF)
  38. Bit depth : 24 bits
  39. Compression mode : Lossless
  40. Delay relative to video : 11 ms
  41. Stream size : 2.45 GiB (20%)
  42. Title : DTS-HD MA 5.1
  43. Language : English
  44. Default : Yes
  45. Forced : No

  46. Audio #2
  47. ID : 3
  48. Format : AAC LC
  49. Format/Info : Advanced Audio Codec Low Complexity
  50. Codec ID : A_AAC-2
  51. Duration : 1 h 36 min
  52. Bit rate : 445 kb/s
  53. Channel(s) : 6 channels
  54. Channel layout : C L R Ls Rs LFE
  55. Sampling rate : 48.0 kHz
  56. Frame rate : 46.875 FPS (1024 SPF)
  57. Compression mode : Lossy
  58. Stream size : 308 MiB (2%)
  59. Title : AAC 5.1
  60. Language : English
  61. Default : No
  62. Forced : No

  63. Text
  64. ID : 4
  65. Format : UTF-8
  66. Codec ID : S_TEXT/UTF8
  67. Codec ID/Info : UTF-8 Plain Text
  68. Duration : 1 h 35 min
  69. Bit rate : 112 b/s
  70. Count of elements : 2027
  71. Stream size : 79.1 KiB (0%)
  72. Title : English
  73. Language : English
  74. Default : Yes
  75. Forced : No

  76. Menu
  77. 00:00:00.000 : 00:00:00.000
  78. 00:05:26.785 : 00:05:26.785
  79. 00:08:42.188 : 00:08:42.188
  80. 00:12:29.791 : 00:12:29.791
  81. 00:17:32.385 : 00:17:32.385
  82. 00:22:19.046 : 00:22:19.046
  83. 00:25:34.992 : 00:25:34.992
  84. 00:30:49.222 : 00:30:49.222
  85. 00:35:11.026 : 00:35:11.026
  86. 00:41:16.891 : 00:41:16.891
  87. 00:46:14.230 : 00:46:14.230
  88. 00:49:23.586 : 00:49:23.586
  89. 00:54:13.250 : 00:54:13.250
  90. 01:00:18.740 : 01:00:18.740
  91. 01:04:47.175 : 01:04:47.175
  92. 01:10:16.254 : 01:10:16.254
  93. 01:14:24.085 : 01:14:24.085
  94. 01:18:36.670 : 01:18:36.670
  95. 01:26:15.170 : 01:26:15.170
  96. 01:31:06.503 : 01:31:06.503
复制代码

贱邻50(港) / 恶邻缠身(台) / 恶邻居 / Bad Neighbours/邻居大战4k Neighbors.2014.2160p.WEB-DL.x265.8bit.SDR.DTS-HD.MA.5.1.4k电影下载

邻居大战4k Neighbors.2014.2160p.WEB-DL.x265.8bit.SDR.DTS-HD.MA.5.1【12.57GB】
[hao4k]邻居大战4k Neighbors.2014.2160p.WEB-DL.x265.8bit.SDR.DTS-HD.MA.5.1-SWTYBLZ.torrent (63.49 KB)
回复

使用道具 举报

全部回复8

panbell 发表于 2021-5-28 09:15:45

panbell 2

2021-5-28 09:15:45

谢谢楼主分享
回复 支持 反对

使用道具 举报

dragon_walk 发表于 2021-5-28 09:59:25

dragon_walk 3

2021-5-28 09:59:25

谢谢分享。下载看看。免费真好
回复 支持 反对

使用道具 举报

shuergao 发表于 2021-5-28 10:22:15

shuergao 4

2021-5-28 10:22:15

谢谢楼主分享
回复 支持 反对

使用道具 举报

dvsfs 发表于 2021-5-28 13:07:16

dvsfs 5

2021-5-28 13:07:16


谢谢楼主分享~~~
回复 支持 反对

使用道具 举报

yangly 发表于 2021-5-29 10:05:16

yangly 6

2021-5-29 10:05:16


谢谢楼主分享
回复 支持 反对

使用道具 举报

hoyu127 发表于 2021-5-29 14:30:01

hoyu127 7

2021-5-29 14:30:01

谢谢分享
回复 支持 反对

使用道具 举报

19820578081 发表于 2021-5-29 17:43:19

19820578081 8

2021-5-29 17:43:19

谢谢分享。下载看看
回复 支持 反对

使用道具 举报

农夫舅舅 发表于 前天 21:37

农夫舅舅 9

前天 21:37

下载看看谢谢楼主
回复 支持 反对

使用道具 举报

   发表回复

您需要登录后才可以回帖 登录 | 立即注册

返回列表 本版积分规则

关闭

站内通知上一条 /1 下一条

  • 在线客服

  • 返回顶部