微博 微信

Hao4K影音

电影频道
电影封面:
片  名: 歪小子斯科特对抗全世界4K
电影分类: 动作 喜剧 奇幻 爱情片 
国  家: 美国 
年  代: 2010年
分 辨 率: 4K(3840x2160)
电影格式: MKV|REMUX 
画质标准: SDR 
音质编码: DTS-HD Master Audio 
电影声道: 5.1声道 
帧数/FPS: 23.976 帧
电影语言: 英文原版 
资源大小: 14.95 GB
导  演: 埃德加·赖特
豆瓣评分: 7.1 分
中文字幕: -
剧情简介:  梦想成为歌手的摇滚青年斯科特(迈克尔·塞拉 Michael Cera 饰)有一支乐队几个死党和一段不堪回首的恋情,他深爱的前女友安维·亚当斯(布丽·拉尔森 Brie Larson 饰)被自己崇拜的同行横刀夺爱。正当悲观的他陷入了深深的感情阴影中无法自拔时,高中生少女奈福斯·周(爱伦·王 Ellen Wong 饰)和梦中情人拉蒙娜·花(玛丽·伊丽莎白·文斯蒂德 Mary Elizabeth Winstead 饰)同时出现在了他的眼前.斯科特对花一见钟情,但令他没有想到的是,他必须先打败她的7个邪恶前男友,才能得到花的芳心。而此时,安维亚当斯的归来和奈福斯·周的乱入又为这看似不可能完成的任务增加了难度。
  影片使用了例如主角三条命、打BOSS升级掉金币、战败重新读档等经典的格斗游戏桥段,使得整个电影充斥着浓浓的漫画风格,游戏爱好者绝对能从中找到共鸣,不容错过。
爆女大格斗(港) / 歪小子斯科特(台) / 斯科特对抗全世界/歪小子斯科特对抗全世界4K Scott.Pilgrim.vs.the.World.2010.2160p.WEB-DL.x265.8bit.SDR.DTS-HD.MA.5.1.4k电影信息
  1. Video
  2. ID : 1
  3. Format : HEVC
  4. Format/Info : High Efficiency Video Coding
  5. Format profile : Main@L5@High
  6. Codec ID : V_MPEGH/ISO/HEVC
  7. Duration : 1 h 52 min
  8. Bit rate : 14.7 Mb/s
  9. Width : 3 840 pixels
  10. Height : 2 160 pixels
  11. Display aspect ratio : 16:9
  12. Frame rate mode : Constant
  13. Frame rate : 23.976 (24000/1001) FPS
  14. Color space : YUV
  15. Chroma subsampling : 4:2:0
  16. Bit depth : 8 bits
  17. Bits/(Pixel*Frame) : 0.074
  18. Stream size : 11.5 GiB (77%)
  19. Default : Yes
  20. Forced : No
  21. Color range : Limited
  22. Color primaries : BT.709
  23. Transfer characteristics : BT.709
  24. Matrix coefficients : BT.709

  25. Audio #1
  26. ID : 2
  27. Format : DTS XLL
  28. Format/Info : Digital Theater Systems
  29. Commercial name : DTS-HD Master Audio
  30. Codec ID : A_DTS
  31. Duration : 1 h 52 min
  32. Bit rate mode : Variable
  33. Bit rate : 3 947 kb/s
  34. Channel(s) : 6 channels
  35. Channel layout : C L R Ls Rs LFE
  36. Sampling rate : 48.0 kHz
  37. Frame rate : 93.750 FPS (512 SPF)
  38. Bit depth : 24 bits
  39. Compression mode : Lossless
  40. Delay relative to video : 5 ms
  41. Stream size : 3.10 GiB (21%)
  42. Title : DTS-HD MA 5.1
  43. Language : English
  44. Default : Yes
  45. Forced : No

  46. Audio #2
  47. ID : 3
  48. Format : AAC LC
  49. Format/Info : Advanced Audio Codec Low Complexity
  50. Codec ID : A_AAC-2
  51. Duration : 1 h 52 min
  52. Bit rate : 445 kb/s
  53. Channel(s) : 6 channels
  54. Channel layout : C L R Ls Rs LFE
  55. Sampling rate : 48.0 kHz
  56. Frame rate : 46.875 FPS (1024 SPF)
  57. Compression mode : Lossy
  58. Stream size : 357 MiB (2%)
  59. Title : AAC 5.1
  60. Language : English
  61. Default : No
  62. Forced : No

  63. Text
  64. ID : 4
  65. Format : UTF-8
  66. Codec ID : S_TEXT/UTF8
  67. Codec ID/Info : UTF-8 Plain Text
  68. Duration : 1 h 50 min
  69. Bit rate : 76 b/s
  70. Count of elements : 2376
  71. Stream size : 62.0 KiB (0%)
  72. Title : English
  73. Language : English
  74. Default : Yes
  75. Forced : No

  76. Menu
  77. 00:00:00.000 : 第 01 章
  78. 00:07:24.318 : 第 02 章
  79. 00:13:14.668 : 第 03 章
  80. 00:20:01.241 : 第 04 章
  81. 00:26:01.142 : 第 05 章
  82. 00:30:50.223 : 第 06 章
  83. 00:38:52.747 : 第 07 章
  84. 00:45:25.681 : 第 08 章
  85. 00:50:18.515 : 第 09 章
  86. 00:53:55.065 : 第 10 章
  87. 00:59:15.843 : 第 11 章
  88. 01:03:10.328 : 第 12 章
  89. 01:08:05.206 : 第 13 章
  90. 01:14:23.750 : 第 14 章
  91. 01:20:19.022 : 第 15 章
  92. 01:27:47.512 : 第 16 章
  93. 01:30:43.771 : 第 17 章
  94. 01:39:14.198 : 第 18 章
  95. 01:40:49.793 : 第 19 章
  96. 01:48:34.466 : 第 20 章
复制代码


爆女大格斗(港) / 歪小子斯科特(台) / 斯科特对抗全世界/歪小子斯科特对抗全世界4K Scott.Pilgrim.vs.the.World.2010.2160p.WEB-DL.x265.8bit.SDR.DTS-HD.MA.5.1.4k电影信息

歪小子斯科特对抗全世界4K Scott.Pilgrim.vs.the.World.2010.2160p.WEB-DL.x265.8bit.SDR.DTS-HD.MA.5.1【14.95 GB】
[Hao4k]歪小子斯科特对抗全世界4k Scott.Pilgrim.vs.the.World.2010.2160p.WEB-DL.x26.torrent (75.42 KB)
回复

使用道具 举报

   发表回复

您需要登录后才可以回帖 登录 | 立即注册

返回列表 本版积分规则

  • 在线客服

  • 返回顶部