微博 微信

Hao4K影音

电影频道
电影封面:
片  名: 通缉令4k
电影分类: 动作 犯罪 奇幻 
国  家: 美国 德国 
年  代: 00年代
分 辨 率: 4K(3840x2160)
电影格式: MKV|REMUX 
画质标准: SDR 
音质编码: DTS-HD Master Audio 
电影声道: 5.1声道 
帧数/FPS: 23.976 帧
电影语言: 英文原版 
资源大小: 14.92 GB
导  演: 提莫·贝克曼贝托夫
豆瓣评分: 7.4 分
中文字幕: /thread-57818-1-1.html
剧情简介:  生活对小职员卫斯理(James McAvoy 饰)来说是毫无意义的重复,每天要忍受痴肥上司唠叨、好友与女友上床,还要不停用药物控制过快的心跳。这天他被一名陌生女子从疯狂枪手的追杀中救出,进入了刺客联盟的世界,救命恩人火狐(Angelina Jolie 饰)与联盟领导史隆(Morgan Freeman 饰)告知卫斯理当年抛弃他的父亲也是组织一员,最近为叛徒十字所杀,卫斯理必须尽快在严酷的训练中成长,才能自保,甚至为父报仇。
  刺客联盟起源于纺织行会,他们按照纺织机提供的密码决定刺杀对象,从而顺应命运的安排。卫斯理很快凭借优异的天赋掌握一系列暗杀手段成为组织一员,开始执行命运赋予的任务,并逐渐接近向十字寻仇的目标,终于,史隆令卫斯理远赴东欧刺杀十字,但在这次任务中,卫斯理意外发现了组织内部的阴谋,而这一次,他不再用逃避解决问题。
  本片获2009年英国帝国电影奖最佳科幻幻想电影奖。
杀神特工(港) / 刺客联盟(台) / 通缉犯/通缉令4k Wanted.2008.2160p.WEB-DL.x265.8bit.SDR.DTS-HD.MA.5.1-4k电影信息
  1. Video
  2. ID : 1
  3. Format : HEVC
  4. Format/Info : High Efficiency Video Coding
  5. Format profile : Main@L5@High
  6. Codec ID : V_MPEGH/ISO/HEVC
  7. Duration : 1 h 49 min
  8. Bit rate : 14.8 Mb/s
  9. Width : 3 840 pixels
  10. Height : 2 160 pixels
  11. Display aspect ratio : 16:9
  12. Frame rate mode : Constant
  13. Frame rate : 23.976 (24000/1001) FPS
  14. Color space : YUV
  15. Chroma subsampling : 4:2:0
  16. Bit depth : 8 bits
  17. Bits/(Pixel*Frame) : 0.074
  18. Stream size : 11.4 GiB (76%)
  19. Default : Yes
  20. Forced : No
  21. Color range : Limited
  22. Color primaries : BT.709
  23. Transfer characteristics : BT.709
  24. Matrix coefficients : BT.709

  25. Audio #1
  26. ID : 2
  27. Format : DTS XLL
  28. Format/Info : Digital Theater Systems
  29. Commercial name : DTS-HD Master Audio
  30. Codec ID : A_DTS
  31. Duration : 1 h 49 min
  32. Bit rate mode : Variable
  33. Bit rate : 4 195 kb/s
  34. Channel(s) : 6 channels
  35. Channel layout : C L R Ls Rs LFE
  36. Sampling rate : 48.0 kHz
  37. Frame rate : 93.750 FPS (512 SPF)
  38. Bit depth : 24 bits
  39. Compression mode : Lossless
  40. Delay relative to video : 3 ms
  41. Stream size : 3.22 GiB (22%)
  42. Title : DTS-HD MA 5.1
  43. Language : English
  44. Default : Yes
  45. Forced : No

  46. Audio #2
  47. ID : 3
  48. Format : AAC LC
  49. Format/Info : Advanced Audio Codec Low Complexity
  50. Codec ID : A_AAC-2
  51. Duration : 1 h 49 min
  52. Bit rate : 445 kb/s
  53. Channel(s) : 6 channels
  54. Channel layout : C L R Ls Rs LFE
  55. Sampling rate : 48.0 kHz
  56. Frame rate : 46.875 FPS (1024 SPF)
  57. Compression mode : Lossy
  58. Stream size : 350 MiB (2%)
  59. Title : AAC 5.1
  60. Language : English
  61. Default : No
  62. Forced : No

  63. Text
  64. ID : 4
  65. Format : UTF-8
  66. Codec ID : S_TEXT/UTF8
  67. Codec ID/Info : UTF-8 Plain Text
  68. Duration : 1 h 43 min
  69. Bit rate : 45 b/s
  70. Count of elements : 1132
  71. Stream size : 34.4 KiB (0%)
  72. Title : English
  73. Language : English
  74. Default : Yes
  75. Forced : No
复制代码


杀神特工(港) / 刺客联盟(台) / 通缉犯/通缉令4k Wanted.2008.2160p.WEB-DL.x265.8bit.SDR.DTS-HD.MA.5.1-4k电影下载

通缉令4k Wanted.2008.2160p.WEB-DL.x265.8bit.SDR.DTS-HD.MA.5.1【14.92GB】
[Hao4k]通缉令4k Wanted.2008.2160p.WEB-DL.x265.8bit.SDR.DTS-HD.MA.5.1-SWTYBLZ.torrent (75.27 KB, 售价: 2 K币)

通缉令4k电影中文字幕下载 感谢K友@苏默金武分享的字幕
https://www.hao4k.cn/thread-57818-1-1.html
分享到:  QQ好友和群QQ好友和群
回复

使用道具 举报

全部回复65

2
13327866066 发表于 2021-5-28 08:14:24

13327866066 2

2021-5-28 08:14:24

谢谢楼主分享。
回复 支持 反对

使用道具 举报

3
xuekaigood1 发表于 2021-5-28 08:42:14

xuekaigood1 3

2021-5-28 08:42:14

谢谢楼主分享
回复 支持 反对

使用道具 举报

4
散步的人 发表于 2021-5-28 08:49:38

散步的人 4

2021-5-28 08:49:38


谢谢楼主分享
回复 支持 反对

使用道具 举报

5
iris6267 发表于 2021-5-28 09:08:44

iris6267 5

2021-5-28 09:08:44


谢谢分享
回复 支持 反对

使用道具 举报

6
bbgrnnji 发表于 2021-5-28 09:10:33

bbgrnnji 6

2021-5-28 09:10:33

电影非常的不错
回复 支持 反对

使用道具 举报

7
panbell 发表于 2021-5-28 09:15:08

panbell 7

2021-5-28 09:15:08

谢谢楼主分享!
回复 支持 反对

使用道具 举报

8
tj5509911 发表于 2021-5-28 09:24:09 Hao4K手机版

tj5509911 8

2021-5-28 09:24:09

这个是修复版嘛
回复 支持 反对

使用道具 举报

9
hk50153 发表于 2021-5-28 09:37:52

hk50153 9

2021-5-28 09:37:52



谢谢楼主分享
回复 支持 反对

使用道具 举报

10
movie2006 发表于 2021-5-28 09:58:15

movie2006 10

2021-5-28 09:58:15

期待原盘
回复 支持 反对

使用道具 举报

11
niepan1985 发表于 2021-5-28 10:16:29

niepan1985 11

2021-5-28 10:16:29

经典电影不错,谢谢分享!
回复 支持 反对

使用道具 举报

12
tb2020 发表于 2021-5-28 11:26:05

tb2020 12

2021-5-28 11:26:05

xiexieliouzou
回复 支持 反对

使用道具 举报

13
ywf6168 发表于 2021-5-28 11:31:18 Hao4K手机版

ywf6168 13

2021-5-28 11:31:18

感谢分享
回复 支持 反对

使用道具 举报

14
wuheping 发表于 2021-5-28 11:50:42

wuheping 14

2021-5-28 11:50:42


谢谢楼主分享
回复 支持 反对

使用道具 举报

15
dannellee 发表于 2021-5-28 12:57:38

dannellee 15

2021-5-28 12:57:38

电影名字不一样了
回复 支持 反对

使用道具 举报

16
4k小白 发表于 2021-5-28 13:10:03

4k小白 16

2021-5-28 13:10:03

好家伙抢斗术哈哈
回复 支持 反对

使用道具 举报

17
concord3303 发表于 2021-5-28 13:25:17

concord3303 17

2021-5-28 13:25:17


谢谢楼主分享
回复 支持 反对

使用道具 举报

18
zj6114 发表于 2021-5-28 14:04:47

zj6114 18

2021-5-28 14:04:47

谢谢楼主分享,以前看过,收藏。
回复 支持 反对

使用道具 举报

   发表回复

您需要登录后才可以回帖 登录 | 立即注册

返回列表 本版积分规则

关闭

站内通知上一条 /1 下一条

  • 在线客服

  • 返回顶部