微博 微信

Hao4K影音

电影频道
电影封面:
片  名: 被抹去的男孩4k
电影分类: 剧情 传记 
国  家: 美国 
年  代: 2018年
分 辨 率: 4K(3840x2160)
电影格式: MKV|REMUX 
画质标准: HDR10 
音质编码: DTS-HD Master Audio 
电影声道: 5.1声道 
帧数/FPS: 23.976 帧
电影语言: 英文原版 
资源大小: 15.05 GB
导  演: 乔尔·埃哲顿
豆瓣评分: 7.4 分
中文字幕: -
剧情简介: 乔尔·埃哲顿将自编自导新片[被清除的男孩](Boy Erased,暂译),主演卢卡斯·赫奇斯,妮可·基德曼、罗素·克劳有望加盟。影片改编自杰拉德·康利同名自传,故事讲述阿肯色一个保守小镇的牧师之子(赫奇斯饰)因同性恋性取向而遭到家庭的排斥,基德曼、克劳饰其父母。影片将于今秋开拍。
  故事简介:在阿肯色州一座封建保守的小城,浸信会牧师19岁的儿子向父母出柜。男孩却被迫参加教会支持的同性恋矫正项目来“治愈”同性恋,否则将会付出失去亲人、朋友和宗教信仰的代价。他起初参与了含有12个步骤的残酷治疗,但最终鼓起勇气逃跑,选择拥抱真正自我。
抹去的男孩 / 被抹掉的男孩/被抹去的男孩4k Boy.Erased.2018.2160p.AMZN.WEB-DL.x265.10bit.HDR10Plus.DTS-HD.MA.5.1.4k电影信息
  1. Video
  2. ID : 1
  3. Format : HEVC
  4. Format/Info : High Efficiency Video Coding
  5. Format profile : Main 10@L5@Main
  6. HDR format : SMPTE ST 2094 App 4, Version 1, HDR10+ Profile B compatible
  7. Codec ID : V_MPEGH/ISO/HEVC
  8. Duration : 1 h 54 min
  9. Bit rate : 14.8 Mb/s
  10. Width : 3 840 pixels
  11. Height : 2 080 pixels
  12. Display aspect ratio : 1.85:1
  13. Frame rate mode : Constant
  14. Frame rate : 23.976 (24000/1001) FPS
  15. Color space : YUV
  16. Chroma subsampling : 4:2:0
  17. Bit depth : 10 bits
  18. Bits/(Pixel*Frame) : 0.077
  19. Stream size : 11.8 GiB (79%)
  20. Default : Yes
  21. Forced : No
  22. Color range : Limited
  23. Color primaries : BT.2020
  24. Transfer characteristics : PQ
  25. Matrix coefficients : BT.2020 non-constant
  26. Mastering display color primaries : Display P3
  27. Mastering display luminance : min: 0.0050 cd/m2, max: 1000 cd/m2
  28. Maximum Content Light Level : 793 cd/m2
  29. Maximum Frame-Average Light Level : 80 cd/m2

  30. Audio #1
  31. ID : 2
  32. Format : DTS XLL
  33. Format/Info : Digital Theater Systems
  34. Commercial name : DTS-HD Master Audio
  35. Codec ID : A_DTS
  36. Duration : 1 h 54 min
  37. Bit rate mode : Variable
  38. Bit rate : 3 338 kb/s
  39. Channel(s) : 6 channels
  40. Channel layout : C L R Ls Rs LFE
  41. Sampling rate : 48.0 kHz
  42. Frame rate : 93.750 FPS (512 SPF)
  43. Bit depth : 24 bits
  44. Compression mode : Lossless
  45. Delay relative to video : 5 ms
  46. Stream size : 2.68 GiB (18%)
  47. Title : DTS-HD MA 5.1
  48. Language : English
  49. Default : Yes
  50. Forced : No

  51. Audio #2
  52. ID : 3
  53. Format : E-AC-3
  54. Format/Info : Enhanced AC-3
  55. Commercial name : Dolby Digital Plus
  56. Codec ID : A_EAC3
  57. Duration : 1 h 54 min
  58. Bit rate mode : Constant
  59. Bit rate : 640 kb/s
  60. Channel(s) : 6 channels
  61. Channel layout : L R C LFE Ls Rs
  62. Sampling rate : 48.0 kHz
  63. Frame rate : 31.250 FPS (1536 SPF)
  64. Compression mode : Lossy
  65. Stream size : 525 MiB (3%)
  66. Title : DDP 5.1
  67. Language : English
  68. Service kind : Complete Main
  69. Default : No
  70. Forced : No

  71. Text #1
  72. ID : 4
  73. Format : UTF-8
  74. Codec ID : S_TEXT/UTF8
  75. Codec ID/Info : UTF-8 Plain Text
  76. Duration : 1 h 45 min
  77. Bit rate : 54 b/s
  78. Count of elements : 1230
  79. Stream size : 42.1 KiB (0%)
  80. Language : English
  81. Default : Yes
  82. Forced : No

  83. Text #2
  84. ID : 5
  85. Format : UTF-8
  86. Codec ID : S_TEXT/UTF8
  87. Codec ID/Info : UTF-8 Plain Text
  88. Duration : 1 h 54 min
  89. Bit rate : 59 b/s
  90. Count of elements : 1721
  91. Stream size : 49.7 KiB (0%)
  92. Title : SDH (WEB)
  93. Language : English
  94. Default : No
  95. Forced : No

  96. Text #3
  97. ID : 6
  98. Format : PGS
  99. Muxing mode : zlib
  100. Codec ID : S_HDMV/PGS
  101. Codec ID/Info : Picture based subtitle format used on BDs/HD-DVDs
  102. Duration : 1 h 45 min
  103. Bit rate : 39.1 kb/s
  104. Count of elements : 2708
  105. Stream size : 29.6 MiB (0%)
  106. Title : SDH
  107. Language : English
  108. Default : No
  109. Forced : No

  110. Text #4
  111. ID : 7
  112. Format : PGS
  113. Muxing mode : zlib
  114. Codec ID : S_HDMV/PGS
  115. Codec ID/Info : Picture based subtitle format used on BDs/HD-DVDs
  116. Duration : 1 h 54 min
  117. Bit rate : 29.9 kb/s
  118. Count of elements : 2488
  119. Stream size : 24.4 MiB (0%)
  120. Language : French
  121. Default : No
  122. Forced : No

  123. Text #5
  124. ID : 8
  125. Format : PGS
  126. Muxing mode : zlib
  127. Codec ID : S_HDMV/PGS
  128. Codec ID/Info : Picture based subtitle format used on BDs/HD-DVDs
  129. Duration : 1 h 54 min
  130. Bit rate : 29.7 kb/s
  131. Count of elements : 2490
  132. Stream size : 24.3 MiB (0%)
  133. Title : Latin American
  134. Language : Spanish
  135. Default : No
  136. Forced : No

  137. Menu
  138. 00:00:00.000 : Studio Logo
  139. 00:00:36.000 : Scene 2
  140. 00:01:32.000 : Scene 3
  141. 00:03:02.000 : Scene 4
  142. 00:05:46.000 : Scene 5
  143. 00:07:13.000 : Scene 6
  144. 00:10:26.000 : Title Sequence
  145. 00:10:42.000 : Scene 8
  146. 00:13:19.000 : Scene 9
  147. 00:16:17.000 : Scene 10
  148. 00:18:15.000 : Scene 11
  149. 00:22:51.000 : Scene 12
  150. 00:26:45.000 : Scene 13
  151. 00:29:16.000 : Scene 14
  152. 00:30:45.000 : Scene 15
  153. 00:38:27.000 : Scene 16
  154. 00:40:07.000 : Scene 17
  155. 00:46:31.000 : Scene 18
  156. 00:52:07.000 : Scene 19
  157. 00:56:42.000 : Scene 20
  158. 00:59:12.000 : Scene 21
  159. 01:03:39.000 : Scene 22
  160. 01:06:34.000 : Scene 23
  161. 01:10:09.000 : Scene 24
  162. 01:14:57.000 : Scene 25
  163. 01:19:14.000 : Scene 26
  164. 01:26:34.000 : Scene 27
  165. 01:29:42.000 : Scene 28
  166. 01:34:31.000 : Scene 29
  167. 01:37:06.000 : Scene 30
  168. 01:41:25.000 : Scene 31
  169. 01:47:03.000 : Scene 32
  170. 01:47:51.000 : Acknowledgement
  171. 01:48:41.000 : End Credits
复制代码


抹去的男孩 / 被抹掉的男孩/被抹去的男孩4k Boy.Erased.2018.2160p.AMZN.WEB-DL.x265.10bit.HDR10Plus.DTS-HD.MA.5.1.4k电影下载

被抹去的男孩4k Boy.Erased.2018.2160p.AMZN.WEB-DL.x265.10bit.HDR10Plus.DTS-HD.MA.5.1【15.05GB】
[Hao4k]被抹去的男孩4k Boy.Erased.2018.2160p.AMZN.WEB-DL.x265.10bit.HDR10Plus.DTS.torrent (75.9 KB, 售价: 2 K币)
回复

使用道具 举报

全部回复5

QQ_1C652F 发表于 2021-5-29 09:29:35

QQ_1C652F 2

2021-5-29 09:29:35

谢谢楼主无私分享
回复 支持 反对

使用道具 举报

hoyu127 发表于 2021-5-29 14:04:46

hoyu127 3

2021-5-29 14:04:46

谢谢分享
回复 支持 反对

使用道具 举报

allen_kpt 发表于 2021-5-29 16:13:10

allen_kpt 4

2021-5-29 16:13:10


好电影,爱看。
回复 支持 反对

使用道具 举报

largefish 发表于 2021-5-30 17:06:11

largefish 5

2021-5-30 17:06:11

bucuo
回复 支持 反对

使用道具 举报

klfg 发表于 2021-6-1 22:37:24

klfg 6

2021-6-1 22:37:24

感谢分享
回复 支持 反对

使用道具 举报

   发表回复

您需要登录后才可以回帖 登录 | 立即注册

返回列表 本版积分规则

  • 在线客服

  • 返回顶部