微博 微信

Hao4K影音

电影频道
电影封面:
片  名: 机动战士高达 逆袭的夏亚4k
电影分类: 动作 科幻 战争 剧情 动画 
国  家: 日本 
年  代: 90年代
分 辨 率: 4K(3840x2160)
电影格式: MKV|REMUX 
画质标准: HDR 
音质编码: DTS-HD Master Audio 
电影声道: 5.1声道 
帧数/FPS: 23.976 帧
电影语言: 英文原版 
资源大小: 17.2 GB
导  演: 富野由悠季
豆瓣评分: 9.1 分
中文字幕: /thread-57998-1-1.html
剧情简介:  宇宙世紀(U.C.)0093年,成為新吉恩總帥的夏亚·阿兹纳布尔對於依然被地球重力所束縛的人類靈魂感到絕望,決心以激烈的手段加以肅正。查知此事的地球聯邦軍王牌駕駛阿姆罗·雷與其所屬的朗德·贝尔艦隊一起與夏亚所領導的新吉恩軍展開最後的決戰...
机动战士:马沙之反击 (港) / Kidō Senshi Gandamu Gyakushū no Shā / Mobile Suit Gundam Char's Counter Attack/机动战士高达 逆袭的夏亚4k Mobile Suit Gundam: Char's Counterattack (1988) (2160p x265 HEVC 10bit HDR UHD BluRay Dual Audio DTS-HD MA 5.1电影信息
  1. [code]Video
  2. ID                                       : 1
  3. Format                                   : HEVC
  4. Format/Info                              : High Efficiency Video Coding
  5. Format profile                           : Main [email protected]@Main
  6. HDR format                               : SMPTE ST 2086, HDR10 compatible
  7. Codec ID                                 : V_MPEGH/ISO/HEVC
  8. Duration                                 : 2 h 0 min
  9. Bit rate                                 : 15.8 Mb/s
  10. Width                                    : 3 840 pixels
  11. Height                                   : 2 072 pixels
  12. Display aspect ratio                     : 1.85:1
  13. Frame rate mode                          : Constant
  14. Frame rate                               : 23.976 (24000/1001) FPS
  15. Color space                              : YUV
  16. Chroma subsampling                       : 4:2:0 (Type 2)
  17. Bit depth                                : 10 bits
  18. Bits/(Pixel*Frame)                       : 0.083
  19. Stream size                              : 13.3 GiB (77%)
  20. Writing library                          : x265 3.5_RC1+2+23-bd060601e:[Windows][GCC 10.2.0][64 bit] 10bit
  21. E
  22. Default                                  : Yes
  23. Forced                                   : No
  24. Color range                              : Limited
  25. Color primaries                          : BT.2020
  26. Transfer characteristics                 : PQ
  27. Matrix coefficients                      : BT.2020 non-constant
  28. Mastering display color primaries        : BT.2020
  29. Mastering display luminance              : min: 0.0050 cd/m2, max: 1000 cd/m2
  30. Maximum Content Light Level              : 1000 cd/m2
  31. Maximum Frame-Average Light Level        : 373 cd/m2

  32. Audio #1
  33. ID                                       : 2
  34. Format                                   : DTS XLL
  35. Format/Info                              : Digital Theater Systems
  36. Commercial name                          : DTS-HD Master Audio
  37. Codec ID                                 : A_DTS
  38. Duration                                 : 1 h 59 min
  39. Bit rate mode                            : Variable
  40. Bit rate                                 : 2 339 kb/s
  41. Channel(s)                               : 6 channels
  42. Channel layout                           : C L R Ls Rs LFE
  43. Sampling rate                            : 48.0 kHz
  44. Frame rate                               : 93.750 FPS (512 SPF)
  45. Bit depth                                : 16 bits
  46. Compression mode                         : Lossless
  47. Delay relative to video                  : 1 s 1 ms
  48. Stream size                              : 1.96 GiB (11%)
  49. Language                                 : English
  50. Default                                  : Yes
  51. Forced                                   : No

  52. Audio #2
  53. ID                                       : 3
  54. Format                                   : DTS XLL
  55. Format/Info                              : Digital Theater Systems
  56. Commercial name                          : DTS-HD Master Audio
  57. Codec ID                                 : A_DTS
  58. Duration                                 : 1 h 59 min
  59. Bit rate mode                            : Variable
  60. Bit rate                                 : 2 348 kb/s
  61. Channel(s)                               : 6 channels
  62. Channel layout                           : C L R Ls Rs LFE
  63. Sampling rate                            : 48.0 kHz
  64. Frame rate                               : 93.750 FPS (512 SPF)
  65. Bit depth                                : 16 bits
  66. Compression mode                         : Lossless
  67. Delay relative to video                  : 1 s 1 ms
  68. Stream size                              : 1.97 GiB (11%)
  69. Language                                 : Japanese
  70. Default                                  : No
  71. Forced                                   : No

  72. Text #1
  73. ID                                       : 4
  74. Format                                   : PGS
  75. Muxing mode                              : zlib
  76. Codec ID                                 : S_HDMV/PGS
  77. Codec ID/Info                            : Picture based subtitle format used on BDs/HD-DVDs
  78. Duration                                 : 1 h 58 min
  79. Bit rate                                 : 48.9 kb/s
  80. Count of elements                        : 2942
  81. Stream size                              : 41.6 MiB (0%)
  82. Title                                    : English
  83. Language                                 : English
  84. Default                                  : No
  85. Forced                                   : No

  86. Text #2
  87. ID                                       : 5
  88. Format                                   : PGS
  89. Muxing mode                              : zlib
  90. Codec ID                                 : S_HDMV/PGS
  91. Codec ID/Info                            : Picture based subtitle format used on BDs/HD-DVDs
  92. Duration                                 : 1 h 58 min
  93. Bit rate                                 : 1 519 b/s
  94. Count of elements                        : 40
  95. Stream size                              : 1.29 MiB (0%)
  96. Title                                    : English Signs and Songs
  97. Language                                 : English
  98. Default                                  : Yes
  99. Forced                                   : No

  100. Text #3
  101. ID                                       : 6
  102. Format                                   : PGS
  103. Muxing mode                              : zlib
  104. Codec ID                                 : S_HDMV/PGS
  105. Codec ID/Info                            : Picture based subtitle format used on BDs/HD-DVDs
  106. Duration                                 : 1 h 59 min
  107. Bit rate                                 : 37.7 kb/s
  108. Count of elements                        : 3624
  109. Stream size                              : 32.1 MiB (0%)
  110. Title                                    : Japanese
  111. Language                                 : Japanese
  112. Default                                  : No
  113. Forced                                   : No

  114. Menu
  115. 00:00:00.000                             : en:5th Luna
  116. 00:14:04.010                             : en:V Gundam
  117. 00:35:18.867                             : en:Flight
  118. 00:49:54.825                             : en:Deceit
  119. 01:05:05.068                             : en:Axis
  120. 01:20:17.521                             : en:Love and Hatred
  121. 01:30:41.227                             : en:Alpha · Azieru
  122. 01:40:48.125                             : en:Fate
  123. 01:48:01.225                             : en:Miracle
  124. 01:55:31.091                             : en:Ending
复制代码
[/code]
机动战士:马沙之反击 (港) / Kidō Senshi Gandamu Gyakushū no Shā / Mobile Suit Gundam Char's Counter Attack/机动战士高达 逆袭的夏亚4k Mobile Suit Gundam: Char's Counterattack 1988 2160p x265 HEVC 10bit HDR UHD BluRay Dual Audio DTS-HD MA 5.1电影下载下载

机动战士高达 逆袭的夏亚4k Mobile Suit Gundam: Char's Counterattack 1988 2160p x265 HEVC 10bit HDR UHD BluRay Dual Audio DTS-HD MA 5.1【17.2 GB】
机动战士高达 逆袭的夏亚4k.txt (106 Bytes)
回复

使用道具 举报

全部回复14

gml3100 发表于 2021-5-28 19:36:29

gml3100 2

2021-5-28 19:36:29

感谢分享,当时还是在vcd上看的。
回复 支持 反对

使用道具 举报

jackqj 发表于 2021-5-29 10:10:27

jackqj 3

2021-5-29 10:10:27

感谢分享,不过好像没有什么资源。希望在来点人加速下
回复 支持 反对

使用道具 举报

zocke 发表于 2021-5-29 10:49:22

zocke 4

2021-5-29 10:49:22

这个都有4k了,马沙和李阿宝的纠葛
回复 支持 反对

使用道具 举报

raymondcmu 发表于 2021-5-29 15:36:54

raymondcmu 5

2021-5-29 15:36:54

最近据说好像要出官方修复嘛?
回复 支持 反对

使用道具 举报

tianlei520 发表于 2021-5-29 22:14:40

tianlei520 6

2021-5-29 22:14:40

感谢分享
回复 支持 反对

使用道具 举报

shakamoto 发表于 2021-5-30 17:13:17

shakamoto 7

2021-5-30 17:13:17

感谢分享,喜欢高达
回复 支持 反对

使用道具 举报

paladinjd 发表于 2021-5-30 22:28:09

paladinjd 8

2021-5-30 22:28:09

经典大片
回复 支持 反对

使用道具 举报

liuxingyu764 发表于 2021-5-31 08:41:29

liuxingyu764 9

2021-5-31 08:41:29

好片,谢谢楼主无私分享
回复 支持 反对

使用道具 举报

哈个屁哈 发表于 2021-5-31 12:07:18

哈个屁哈 10

2021-5-31 12:07:18

?木有链接啊?
回复 支持 反对

使用道具 举报

wzeng 发表于 2021-5-31 14:07:32

wzeng 11

2021-5-31 14:07:32


好片,谢谢楼主无私分享
回复 支持 反对

使用道具 举报

ttdwht 发表于 2021-5-31 17:12:25

ttdwht 12

2021-5-31 17:12:25

感谢分享,喜欢高达
回复 支持 反对

使用道具 举报

暗黑魔灵天使 发表于 2021-6-1 09:26:06

暗黑魔灵天使 13

2021-6-1 09:26:06

可惜啊,没有字幕,找了半天也没有找到
回复 支持 反对

使用道具 举报

emc001 发表于 2021-6-1 16:05:41

emc001 14

2021-6-1 16:05:41

感谢分享
回复 支持 反对

使用道具 举报

bbgrnnji 发表于 2021-6-4 09:04:52

bbgrnnji 15

2021-6-4 09:04:52

日本动画不错
回复 支持 反对

使用道具 举报

   发表回复

您需要登录后才可以回帖 登录 | 立即注册

返回列表 本版积分规则

关闭

站内通知上一条 /1 下一条

  • 在线客服

  • 返回顶部