微博 微信

Hao4K影音

电影频道
电影封面:
片  名: 天地大冲撞4K
电影分类: 科幻 灾难 
国  家: 美国 
年  代: 90年代
分 辨 率: 4K(3840x2160)
电影格式: MKV|REMUX 
画质标准: SDR 
音质编码: Dolby-TrueHD DTS-HD Master Audio 
电影声道: 5.1声道 
帧数/FPS: 23.976 帧
电影语言: 英文原版 
资源大小: 19.92 GB
导  演: 米密·莱德
豆瓣评分: 7.2 分
中文字幕: -
剧情简介:  “毕德曼慧星”正朝着地球飞奔而来,给人类致命一击。当局紧急行动,研究出一个最佳方案——由宇航员坦纳(罗伯特·杜瓦尔 Robert Duvall饰)驾驶“弥赛号”飞船飞往慧星,把预先准备好的核弹放置到慧星上面引爆,以令它化成碎片或是改变轨道。坦纳英勇地完成了任务,却发现并没有取得预期效果。慧星碎成了一大一小两部分,向地球步步逼近。
  当局迅速采取最后的行动,用“诺亚方舟”计划保住包括人类在内的一些地球物种。这是一个秘密的地下庇护所,只有少数的人可以在这里避开大劫难,等灾难散尽后方重建世界。较小的那部分慧星已经撞向地球,引发山崩地裂,一片世界末日的景象。而跟随其后的大慧星给地球带来的毁灭程度,将远远超乎人们想象,力挽狂澜的人类进入了倒数时刻。
末日救未来(港) / 彗星撞地球(台) / 末日救地球/天地大冲撞4K.Deep.Impact.1998.2160p.WEB-DL.x265.8bit.SDR.DTS-HD.MA.TrueHD.5.1-4k电影信息
  1. Video
  2. ID : 1
  3. Format : HEVC
  4. Format/Info : High Efficiency Video Coding
  5. Format profile : Main@L5@High
  6. Codec ID : V_MPEGH/ISO/HEVC
  7. Duration : 2 h 1 min
  8. Bit rate : 14.7 Mb/s
  9. Width : 3 840 pixels
  10. Height : 2 160 pixels
  11. Display aspect ratio : 16:9
  12. Frame rate mode : Constant
  13. Frame rate : 23.976 (24000/1001) FPS
  14. Color space : YUV
  15. Chroma subsampling : 4:2:0
  16. Bit depth : 8 bits
  17. Bits/(Pixel*Frame) : 0.074
  18. Stream size : 12.5 GiB (63%)
  19. Default : Yes
  20. Forced : No
  21. Color range : Limited
  22. Color primaries : BT.709
  23. Transfer characteristics : BT.709
  24. Matrix coefficients : BT.709

  25. Audio #1
  26. ID : 2
  27. ID in the original source medium : 4352 (0x1100)
  28. Format : MLP FBA
  29. Format/Info : Meridian Lossless Packing FBA
  30. Commercial name : Dolby TrueHD
  31. Codec ID : A_TRUEHD
  32. Duration : 2 h 1 min
  33. Bit rate mode : Variable
  34. Bit rate : 3 963 kb/s
  35. Maximum bit rate : 5 544 kb/s
  36. Channel(s) : 6 channels
  37. Channel layout : L R C LFE Ls Rs
  38. Sampling rate : 48.0 kHz
  39. Frame rate : 1 200.000 FPS (40 SPF)
  40. Bit depth : 24 bits
  41. Compression mode : Lossless
  42. Stream size : 3.35 GiB (17%)
  43. Title : TrueHD 5.1
  44. Language : English
  45. Default : Yes
  46. Forced : No
  47. Original source medium : Blu-ray

  48. Audio #2
  49. ID : 3
  50. Format : DTS XLL
  51. Format/Info : Digital Theater Systems
  52. Commercial name : DTS-HD Master Audio
  53. Codec ID : A_DTS
  54. Duration : 2 h 1 min
  55. Bit rate mode : Variable
  56. Bit rate : 4 311 kb/s
  57. Channel(s) : 6 channels
  58. Channel layout : C L R Ls Rs LFE
  59. Sampling rate : 48.0 kHz
  60. Frame rate : 93.750 FPS (512 SPF)
  61. Bit depth : 24 bits
  62. Compression mode : Lossless
  63. Stream size : 3.65 GiB (18%)
  64. Title : DTS-HD MA 5.1
  65. Language : English
  66. Default : No
  67. Forced : No

  68. Audio #3
  69. ID : 4
  70. Format : AAC LC
  71. Format/Info : Advanced Audio Codec Low Complexity
  72. Codec ID : A_AAC-2
  73. Duration : 2 h 1 min
  74. Bit rate : 445 kb/s
  75. Channel(s) : 6 channels
  76. Channel layout : C L R Ls Rs LFE
  77. Sampling rate : 48.0 kHz
  78. Frame rate : 46.875 FPS (1024 SPF)
  79. Compression mode : Lossy
  80. Stream size : 386 MiB (2%)
  81. Title : AAC 5.1
  82. Language : English
  83. Default : No
  84. Forced : No

  85. Text
  86. ID : 5
  87. Format : UTF-8
  88. Codec ID : S_TEXT/UTF8
  89. Codec ID/Info : UTF-8 Plain Text
  90. Duration : 1 h 52 min
  91. Bit rate : 65 b/s
  92. Count of elements : 1719
  93. Stream size : 53.4 KiB (0%)
  94. Title : English
  95. Language : English
  96. Default : Yes
  97. Forced : No

  98. Menu
  99. 00:00:00.000 : Chapter 01
  100. 00:02:37.615 : Chapter 02
  101. 00:07:01.754 : Chapter 03
  102. 00:10:53.944 : Chapter 04
  103. 00:17:10.988 : Chapter 05
  104. 00:20:37.861 : Chapter 06
  105. 00:22:21.631 : Chapter 07
  106. 00:25:28.026 : Chapter 08
  107. 00:35:00.932 : Chapter 09
  108. 00:39:13.267 : Chapter 10
  109. 00:43:58.886 : Chapter 11
  110. 00:51:49.022 : Chapter 12
  111. 00:56:17.540 : Chapter 13
  112. 01:00:15.778 : Chapter 14
  113. 01:05:01.814 : Chapter 15
  114. 01:09:42.219 : Chapter 16
  115. 01:13:53.345 : Chapter 17
  116. 01:18:10.602 : Chapter 18
  117. 01:20:08.303 : Chapter 19
  118. 01:22:52.467 : Chapter 20
  119. 01:25:20.323 : Chapter 21
  120. 01:27:46.844 : Chapter 22
  121. 01:31:53.591 : Chapter 23
  122. 01:34:23.074 : Chapter 24
  123. 01:38:45.044 : Chapter 25
  124. 01:40:55.424 : Chapter 26
  125. 01:43:22.279 : Chapter 27
  126. 01:46:15.118 : Chapter 28
  127. 01:51:43.488 : Chapter 29
  128. 01:53:23.838 : Chapter 30
复制代码

末日救未来(港) / 彗星撞地球(台) / 末日救地球/天地大冲撞4K.Deep.Impact.1998.2160p.WEB-DL.x265.8bit.SDR.DTS-HD.MA.TrueHD.5.1-4k电影下载

天地大冲撞4K.Deep.Impact.1998.2160p.WEB-DL.x265.8bit.SDR.DTS-HD.MA.TrueHD.5.1【4K SDR 19.92 GB】
[Hao4K]天地大冲撞4K.Deep.Impact.1998.2160p.WEB-DL.x265.8bit.SDR.DTS-HD.MA.TrueHD.torrent (100.29 KB)
回复

使用道具 举报

全部回复58

yangly 发表于 2021-5-28 21:22:06

yangly 2

2021-5-28 21:22:06

谢谢分享
回复 支持 反对

使用道具 举报

xfxzc 发表于 2021-5-28 21:29:58

xfxzc 3

2021-5-28 21:29:58

好怀念的片子~竟然有4K版~感谢分享~~~~~~~
回复 支持 反对

使用道具 举报

concord3303 发表于 2021-5-29 06:53:47

concord3303 4

2021-5-29 06:53:47


蠻好看的電影,認真推薦一下
回复 支持 反对

使用道具 举报

zsadtj 发表于 2021-5-29 07:55:04

zsadtj 5

2021-5-29 07:55:04

爱是棉被的香气
回复 支持 反对

使用道具 举报

农夫舅舅 发表于 2021-5-29 08:19:25 Hao4K手机版

农夫舅舅 6

2021-5-29 08:19:25

布鲁斯威利斯主演的那部对不对,经典,
回复 支持 反对

使用道具 举报

totole 发表于 2021-5-29 08:52:27

totole 7

2021-5-29 08:52:27

等破解版再收藏
回复 支持 反对

使用道具 举报

ywf6168 发表于 2021-5-29 09:00:19 Hao4K手机版

ywf6168 8

2021-5-29 09:00:19

先下来看看,谢谢分享!
回复 支持 反对

使用道具 举报

康城大叔 发表于 2021-5-29 09:02:45

康城大叔 9

2021-5-29 09:02:45

这个太经典了,想当年电影院看完还做恶梦来着,
回复 支持 反对

使用道具 举报

13327866066 发表于 2021-5-29 09:10:51

13327866066 10

2021-5-29 09:10:51

谢谢楼主无私分享。
回复 支持 反对

使用道具 举报

农夫舅舅 发表于 2021-5-29 10:17:52

农夫舅舅 11

2021-5-29 10:17:52

感谢漏主的无私分享
回复 支持 反对

使用道具 举报

cdyangjun2019 发表于 2021-5-29 10:45:03

cdyangjun2019 12

2021-5-29 10:45:03

经典电影,谢谢楼主分享
回复 支持 反对

使用道具 举报

Marcoo 发表于 2021-5-29 11:02:16

Marcoo 13

2021-5-29 11:02:16

农夫舅舅 发表于 2021-5-29 08:19
布鲁斯威利斯主演的那部对不对,经典,

不是那部. 那部叫Armageddon. 又名绝世天劫.
回复 支持 反对

使用道具 举报

wei7416 发表于 2021-5-29 11:26:46

wei7416 14

2021-5-29 11:26:46

谢谢楼主无私分享。
回复 支持 反对

使用道具 举报

tee001 发表于 2021-5-29 11:39:32

tee001 15

2021-5-29 11:39:32

8bit编码,效率明显不如10bit,黑色部分有MSK
回复 支持 反对

使用道具 举报

海天一线lu 发表于 2021-5-29 15:15:10

海天一线lu 16

2021-5-29 15:15:10

感谢楼主分享。
回复 支持 反对

使用道具 举报

农夫舅舅 发表于 2021-5-29 16:04:28 Hao4K手机版

农夫舅舅 17

2021-5-29 16:04:28

Marcoo 发表于 2021-5-29 11:02
不是那部. 那部叫Armageddon. 又名绝世天劫.

哦,对的对的
回复 支持 反对

使用道具 举报

19820578081 发表于 2021-5-29 17:40:40

19820578081 18

2021-5-29 17:40:40

谢谢分享。下载看看
回复 支持 反对

使用道具 举报

   发表回复

您需要登录后才可以回帖 登录 | 立即注册

返回列表 本版积分规则

  • 在线客服

  • 返回顶部