微博 微信

Hao4K影音

[美剧] 恐慌4k Panic.S01.2160p.美剧下载

2021-6-10 00:18:56 27754 6 |只看大图 回帖奖励 |倒序浏览 |阅读模式

大红色 帖主

2021-5-29 12:30:34

电视剧频道
电视剧封面:
电视剧名: 恐慌4k
年  代: 2021  
国  家: 美国
类  别: 犯罪 冒险 惊悚 剧情 
语  言: 英语
字  幕: 英文原版
上映日期: 2021-05-28
文件格式: mkv    
视频效果: 4K(3840x2160)    
资源大小: 44.97 GB
片  长: 60 分钟
导  演: 劳伦·奥利弗
剧情简介: PANIC is a new Amazon Prime Video one-hour drama series, written and created by Lauren Oliver (based on her bestselling novel). It takes place in a small Texas town, where every summer the graduating seniors compete in a series of challenges, winner takes all, which they believe is their one and only chance to escape their circumstances and make their lives better. But this year, the rules have changed — the pot of money is larger than ever and the game has become even more dangerous. The players will come face to face with their deepest, darkest fears and be forced to decide how much they are willing to risk in order to win.
恐慌游戏/恐慌4k Panic.S01.2160p.AMZN.WEB-DL.x265.10bit.HDR10Plus.DDP5.1美剧信息
  1. Video
  2. ID : 1
  3. Format : HEVC
  4. Format/Info : High Efficiency Video Coding
  5. Format profile : Main 10@L5@Main
  6. HDR format : SMPTE ST 2094 App 4, Version 1, HDR10+ Profile B compatible
  7. Codec ID : V_MPEGH/ISO/HEVC
  8. Duration : 48 min 13 s
  9. Bit rate : 14.1 Mb/s
  10. Width : 3 840 pixels
  11. Height : 2 160 pixels
  12. Display aspect ratio : 16:9
  13. Frame rate mode : Constant
  14. Frame rate : 23.976 (24000/1001) FPS
  15. Color space : YUV
  16. Chroma subsampling : 4:2:0
  17. Bit depth : 10 bits
  18. Bits/(Pixel*Frame) : 0.071
  19. Stream size : 4.76 GiB (94%)
  20. Default : Yes
  21. Forced : No
  22. Color range : Limited
  23. Color primaries : BT.2020
  24. Transfer characteristics : PQ
  25. Matrix coefficients : BT.2020 non-constant
  26. Mastering display color primaries : Display P3
  27. Mastering display luminance : min: 0.0001 cd/m2, max: 1000 cd/m2
  28. Maximum Content Light Level : 496 cd/m2
  29. Maximum Frame-Average Light Level : 123 cd/m2

  30. Audio
  31. ID : 2
  32. Format : E-AC-3
  33. Format/Info : Enhanced AC-3
  34. Commercial name : Dolby Digital Plus
  35. Codec ID : A_EAC3
  36. Duration : 48 min 13 s
  37. Bit rate mode : Constant
  38. Bit rate : 640 kb/s
  39. Channel(s) : 6 channels
  40. Channel layout : L R C LFE Ls Rs
  41. Sampling rate : 48.0 kHz
  42. Frame rate : 31.250 FPS (1536 SPF)
  43. Compression mode : Lossy
  44. Delay relative to video : 26 ms
  45. Stream size : 221 MiB (4%)
  46. Language : English
  47. Service kind : Complete Main
  48. Default : Yes
  49. Forced : No

  50. Text #1
  51. ID : 3
  52. Format : UTF-8
  53. Codec ID : S_TEXT/UTF8
  54. Codec ID/Info : UTF-8 Plain Text
  55. Title : English
  56. Language : English
  57. Default : No
  58. Forced : No

  59. Text #2
  60. ID : 4
  61. Format : UTF-8
  62. Codec ID : S_TEXT/UTF8
  63. Codec ID/Info : UTF-8 Plain Text
  64. Title : Arabic
  65. Language : Arabic
  66. Default : No
  67. Forced : No

  68. Text #3
  69. ID : 5
  70. Format : UTF-8
  71. Codec ID : S_TEXT/UTF8
  72. Codec ID/Info : UTF-8 Plain Text
  73. Title : Chinese Simplified
  74. Language : Chinese
  75. Default : No
  76. Forced : No

  77. Text #4
  78. ID : 6
  79. Format : UTF-8
  80. Codec ID : S_TEXT/UTF8
  81. Codec ID/Info : UTF-8 Plain Text
  82. Title : Chinese Traditional
  83. Language : Chinese
  84. Default : No
  85. Forced : No

  86. Text #5
  87. ID : 7
  88. Format : UTF-8
  89. Codec ID : S_TEXT/UTF8
  90. Codec ID/Info : UTF-8 Plain Text
  91. Title : Czech (Czechia)
  92. Language : Czech
  93. Default : No
  94. Forced : No
复制代码


恐慌游戏/恐慌4k Panic.S01.2160p.AMZN.WEB-DL.x265.10bit.HDR10Plus.DDP5.1美剧下载

恐慌4k Panic.S01.2160p.AMZN.WEB-DL.x265.10bit.HDR10Plus.DDP5.1【44.97 GB】
[Hao4k]恐慌4k Panic.S01.2160p.AMZN.WEB-DL.x265.10bit.HDR10Plus.DDP5.1-MIXED.torrent (113.7 KB)
回复

使用道具 举报

全部回复6

clgrose2000 发表于 2021-5-29 16:34:10

clgrose2000 2

2021-5-29 16:34:10

谢谢分享
回复 支持 反对

使用道具 举报

ZJG8237372 发表于 2021-5-31 11:14:47

ZJG8237372 3

2021-5-31 11:14:47

自带中字
回复 支持 反对

使用道具 举报

ggang 发表于 2021-6-1 14:11:40

ggang 4

2021-6-1 14:11:40

多谢楼主的分享;
回复 支持 反对

使用道具 举报

snipereyes 发表于 2021-6-2 20:01:19

snipereyes 5

2021-6-2 20:01:19

谢谢楼主分享~~~~~
回复 支持 反对

使用道具 举报

jcjjyy 发表于 2021-6-3 08:54:31

jcjjyy 6

2021-6-3 08:54:31

谢谢分享
回复 支持 反对

使用道具 举报

ouyaochirourou 发表于 2021-6-10 00:18:56

ouyaochirourou 7

2021-6-10 00:18:56

谢谢分享,听说挺好看的
回复 支持 反对

使用道具 举报

   发表回复

您需要登录后才可以回帖 登录 | 立即注册

返回列表 本版积分规则

:
白银玩家
:
未填写

主题

帖子

积分1158

关闭

站内通知上一条 /1 下一条

  • 在线客服

  • 返回顶部