微博 微信

Hao4K影音

电影频道
电影封面:
片  名: 避孕计划4K
电影分类: 喜剧 
国  家: 美国 
年  代: 2021年
分 辨 率: 4K(3840x2160)
电影格式: MKV|REMUX 
画质标准: SDR 
音质编码: Dolby Digital Plus Audio 
电影声道: 5.1声道 
帧数/FPS: 23.976 帧
电影语言: 英文原版 
资源大小: 9.99 GB
导  演: 娜塔丽·莫瑞丝
豆瓣评分: 6.4 分
中文字幕: -
剧情简介: Follows a straight-laced high school student and her slacker best friend who, after a regrettable first sexual encounter, have 24 hours to hunt down a Plan B pill in America\'s heartland.
避孕计划4K.Plan.B.2021.2160p.HULU.WEB-DL.x265.10bit.SDR.DDP5.1-4k电影信息
  1. Video
  2. ID : 1
  3. Format : HEVC
  4. Format/Info : High Efficiency Video Coding
  5. Format profile : Main 10@L5.1@Main
  6. Codec ID : V_MPEGH/ISO/HEVC
  7. Duration : 1 h 47 min
  8. Bit rate : 13.0 Mb/s
  9. Width : 3 840 pixels
  10. Height : 2 160 pixels
  11. Display aspect ratio : 16:9
  12. Frame rate mode : Constant
  13. Frame rate : 24.000 FPS
  14. Color space : YUV
  15. Chroma subsampling : 4:2:0
  16. Bit depth : 10 bits
  17. Bits/(Pixel*Frame) : 0.065
  18. Stream size : 9.80 GiB (98%)
  19. Default : Yes
  20. Forced : No

  21. Audio
  22. ID : 2
  23. Format : E-AC-3
  24. Format/Info : Enhanced AC-3
  25. Commercial name : Dolby Digital Plus
  26. Codec ID : A_EAC3
  27. Duration : 1 h 47 min
  28. Bit rate mode : Constant
  29. Bit rate : 256 kb/s
  30. Channel(s) : 6 channels
  31. Channel layout : L R C LFE Ls Rs
  32. Sampling rate : 48.0 kHz
  33. Frame rate : 31.250 FPS (1536 SPF)
  34. Compression mode : Lossy
  35. Stream size : 197 MiB (2%)
  36. Title : DDP 5.1
  37. Language : English
  38. Service kind : Complete Main
  39. Default : Yes
  40. Forced : No

  41. Text #1
  42. ID : 3
  43. Format : UTF-8
  44. Codec ID : S_TEXT/UTF8
  45. Codec ID/Info : UTF-8 Plain Text
  46. Duration : 1 h 46 min
  47. Bit rate : 96 b/s
  48. Count of elements : 2144
  49. Stream size : 75.6 KiB (0%)
  50. Language : English
  51. Default : Yes
  52. Forced : No

  53. Text #2
  54. ID : 4
  55. Format : UTF-8
  56. Codec ID : S_TEXT/UTF8
  57. Codec ID/Info : UTF-8 Plain Text
  58. Duration : 1 h 43 min
  59. Bit rate : 98 b/s
  60. Count of elements : 2045
  61. Stream size : 74.3 KiB (0%)
  62. Language : Spanish
  63. Default : No
  64. Forced : No
复制代码

避孕计划4K.Plan.B.2021.2160p.HULU.WEB-DL.x265.10bit.SDR.DDP5.1-4K电影下载

避孕计划4K.Plan.B.2021.2160p.HULU.WEB-DL.x265.10bit.SDR.DDP5.1【4K SDR 9.99GB】
[Hao4K]避孕计划4K.Plan.B.2021.2160p.HULU.WEB-DL.x265.10bit.SDR.DDP5.1-SWTYBLZ.torrent (50.61 KB, 售价: 2 K币)
回复

使用道具 举报

全部回复20

月光麦田 发表于 2021-5-30 09:26:15

月光麦田 2

2021-5-30 09:26:15

谢谢分享
回复 支持 反对

使用道具 举报

gq68568 发表于 2021-5-30 10:13:51

gq68568 3

2021-5-30 10:13:51


谢谢分享
回复 支持 反对

使用道具 举报

panbell 发表于 2021-5-30 11:08:57

panbell 4

2021-5-30 11:08:57

谢谢楼主分享
回复 支持 反对

使用道具 举报

liyun80000 发表于 2021-5-30 12:06:35

liyun80000 5

2021-5-30 12:06:35

谢谢楼主分享
回复 支持 反对

使用道具 举报

馒头哥哥 发表于 2021-5-30 16:32:40

馒头哥哥 6

2021-5-30 16:32:40

谢谢楼主分享
回复 支持 反对

使用道具 举报

66孔子 发表于 2021-5-30 20:09:52

66孔子 7

2021-5-30 20:09:52

辛苦楼主分享
回复 支持 反对

使用道具 举报

QQ_1C652F 发表于 2021-5-30 22:44:44

QQ_1C652F 8

2021-5-30 22:44:44

谢谢楼主无私分享
回复 支持 反对

使用道具 举报

lh100517 发表于 2021-5-31 02:40:37

lh100517 9

2021-5-31 02:40:37


谢谢楼主分享
回复 支持 反对

使用道具 举报

dyczw 发表于 2021-5-31 06:30:40

dyczw 10

2021-5-31 06:30:40

感谢分享,辛苦了!
回复 支持 反对

使用道具 举报

imagay 发表于 2021-5-31 08:21:20

imagay 11

2021-5-31 08:21:20

带节育器不就得了,真不嫌麻烦
回复 支持 反对

使用道具 举报

a915320822 发表于 2021-5-31 20:34:42

a915320822 12

2021-5-31 20:34:42


谢谢分享
回复 支持 反对

使用道具 举报

tuerye 发表于 2021-6-1 14:36:12

tuerye 13

2021-6-1 14:36:12

感谢分享!
回复 支持 反对

使用道具 举报

klfg 发表于 2021-6-2 02:19:15

klfg 14

2021-6-2 02:19:15

感谢分享,牛
回复 支持 反对

使用道具 举报

fanfanfan 发表于 2021-6-2 16:10:39

fanfanfan 15

2021-6-2 16:10:39

非常 感谢 提供 的资料  谢谢。
回复 支持 反对

使用道具 举报

tianxing214 发表于 2021-6-6 22:34:25

tianxing214 16

2021-6-6 22:34:25



谢谢分享
回复 支持 反对

使用道具 举报

JasonWY 发表于 2021-6-7 13:59:20 Hao4K手机版

JasonWY 17

2021-6-7 13:59:20

求字幕
回复 支持 反对

使用道具 举报

mo814876560 发表于 2021-6-9 08:41:26

mo814876560 18

2021-6-9 08:41:26

先收藏了,多谢楼主的分享。
回复 支持 反对

使用道具 举报

   发表回复

您需要登录后才可以回帖 登录 | 立即注册

返回列表 本版积分规则

  • 在线客服

  • 返回顶部