微博 微信

Hao4K影音

电影频道
电影封面:
片  名: 零号病人4k
电影分类: 动作 科幻 
国  家: 英国 
年  代: 2018年
分 辨 率: 4K(3840x2160)
电影格式: MKV|REMUX 
画质标准: HDR 
音质编码: DTS-HD Master Audio 
电影声道: 5.1声道 
帧数/FPS: 23.976 帧
电影语言: 英文原版 
资源大小: 46.83 GB
导  演: 斯戴芬·卢佐维茨基
豆瓣评分: 4.7 分
中文字幕: -
剧情简介:  索尼影业的发言人今日透露,上一任“神秘博士”马特·史密斯与《权力的游戏》的“高庭玫瑰”娜塔莉·多默将共同出演科幻灾难片《零号病人》(Patient Zero)。
  在《零号病人》(暂译)的故事里,某种超强病毒侵袭了整个地球并变异出一类具有严重暴力侵向的新物种。而一位对病毒免疫的人类幸存者发现自己能和这些变异人交流,为了拯救被感染的妻子,他决心带领大家找到“零号病人”,寻求治愈病毒的解药。
  本片将由凭借《伯纳德行动》获得过奥斯卡最佳外语片奖的斯戴芬·卢佐维茨基执导,喜剧片《冒牌家庭》的制作人文森特·纽曼担纲制片。
零号病人4k  Patient.Zero.2018.2160p.BCORE.WEB-DL.x265.10bit.HDR.DTS-HD.MA.5.1电影信息
  1. Video
  2. ID : 1
  3. Format : HEVC
  4. Format/Info : High Efficiency Video Coding
  5. Format profile : Main 10@L5.2@High
  6. HDR format : SMPTE ST 2086, HDR10 compatible
  7. Codec ID : V_MPEGH/ISO/HEVC
  8. Duration : 1 h 26 min
  9. Bit rate : 73.0 Mb/s
  10. Width : 3 840 pixels
  11. Height : 2 160 pixels
  12. Display aspect ratio : 16:9
  13. Frame rate mode : Constant
  14. Frame rate : 23.976 (24000/1001) FPS
  15. Color space : YUV
  16. Chroma subsampling : 4:2:0 (Type 2)
  17. Bit depth : 10 bits
  18. Bits/(Pixel*Frame) : 0.367
  19. Stream size : 44.2 GiB (94%)
  20. Language : English
  21. Default : Yes
  22. Forced : No
  23. Color range : Full
  24. Color primaries : BT.2020
  25. Transfer characteristics : PQ
  26. Matrix coefficients : BT.2020 non-constant
  27. Mastering display color primaries : Display P3
  28. Mastering display luminance : min: 0.0050 cd/m2, max: 4000 cd/m2
  29. Maximum Content Light Level : 1047 cd/m2
  30. Maximum Frame-Average Light Level : 229 cd/m2

  31. Audio #1
  32. ID : 2
  33. Format : DTS XLL
  34. Format/Info : Digital Theater Systems
  35. Commercial name : DTS-HD Master Audio
  36. Codec ID : A_DTS
  37. Duration : 1 h 26 min
  38. Bit rate mode : Variable
  39. Bit rate : 2 232 kb/s
  40. Channel(s) : 6 channels
  41. Channel layout : C L R Ls Rs LFE
  42. Sampling rate : 48.0 kHz
  43. Frame rate : 93.750 FPS (512 SPF)
  44. Bit depth : 16 bits
  45. Compression mode : Lossless
  46. Stream size : 1.35 GiB (3%)
  47. Title : DTS-HD MA 5.1
  48. Language : English
  49. Default : Yes
  50. Forced : No

  51. Audio #2
  52. ID : 3
  53. Format : AC-3
  54. Format/Info : Audio Coding 3
  55. Commercial name : Dolby Digital
  56. Codec ID : A_AC3
  57. Duration : 1 h 26 min
  58. Bit rate mode : Constant
  59. Bit rate : 640 kb/s
  60. Channel(s) : 6 channels
  61. Channel layout : L R C LFE Ls Rs
  62. Sampling rate : 48.0 kHz
  63. Frame rate : 31.250 FPS (1536 SPF)
  64. Compression mode : Lossy
  65. Stream size : 397 MiB (1%)
  66. Title : DD 5.1
  67. Language : English
  68. Service kind : Complete Main
  69. Default : No
  70. Forced : No

  71. Audio #3
  72. ID : 4
  73. Format : DTS
  74. Format/Info : Digital Theater Systems
  75. Codec ID : A_DTS
  76. Duration : 1 h 26 min
  77. Bit rate mode : Constant
  78. Bit rate : 768 kb/s
  79. Channel(s) : 6 channels
  80. Channel layout : C L R Ls Rs LFE
  81. Sampling rate : 48.0 kHz
  82. Frame rate : 93.750 FPS (512 SPF)
  83. Bit depth : 24 bits
  84. Compression mode : Lossy
  85. Stream size : 477 MiB (1%)
  86. Title : DTS 5.1
  87. Language : English
  88. Default : No
  89. Forced : No

  90. Text #1
  91. ID : 5
  92. Format : UTF-8
  93. Codec ID : S_TEXT/UTF8
  94. Codec ID/Info : UTF-8 Plain Text
  95. Duration : 4 s 337 ms
  96. Bit rate : 145 b/s
  97. Count of elements : 2
  98. Stream size : 79.0 Bytes (0%)
  99. Title : FORCED
  100. Language : English
  101. Default : Yes
  102. Forced : No

  103. Text #2
  104. ID : 6
  105. Format : UTF-8
  106. Codec ID : S_TEXT/UTF8
  107. Codec ID/Info : UTF-8 Plain Text
  108. Duration : 1 h 21 min
  109. Bit rate : 61 b/s
  110. Count of elements : 1071
  111. Stream size : 36.4 KiB (0%)
  112. Language : English
  113. Default : No
  114. Forced : No

  115. Text #3
  116. ID : 7
  117. Format : PGS
  118. Muxing mode : zlib
  119. Codec ID : S_HDMV/PGS
  120. Codec ID/Info : Picture based subtitle format used on BDs/HD-DVDs
  121. Duration : 1 h 21 min
  122. Bit rate : 45.6 kb/s
  123. Count of elements : 2118
  124. Stream size : 26.5 MiB (0%)
  125. Language : English
  126. Default : No
  127. Forced : No

  128. Text #4
  129. ID : 8
  130. Format : PGS
  131. Muxing mode : zlib
  132. Codec ID : S_HDMV/PGS
  133. Codec ID/Info : Picture based subtitle format used on BDs/HD-DVDs
  134. Duration : 1 h 21 min
  135. Bit rate : 53.4 kb/s
  136. Count of elements : 2518
  137. Stream size : 31.0 MiB (0%)
  138. Title : SDH
  139. Language : English
  140. Default : No
  141. Forced : No

  142. Text #5
  143. ID : 9
  144. Format : PGS
  145. Muxing mode : zlib
  146. Codec ID : S_HDMV/PGS
  147. Codec ID/Info : Picture based subtitle format used on BDs/HD-DVDs
  148. Duration : 1 h 26 min
  149. Bit rate : 21.5 kb/s
  150. Count of elements : 2152
  151. Stream size : 13.3 MiB (0%)
  152. Language : Arabic
  153. Default : No
  154. Forced : No

  155. Text #6
  156. ID : 10
  157. Format : PGS
  158. Muxing mode : zlib
  159. Codec ID : S_HDMV/PGS
  160. Codec ID/Info : Picture based subtitle format used on BDs/HD-DVDs
  161. Duration : 1 h 26 min
  162. Bit rate : 43.7 kb/s
  163. Count of elements : 2130
  164. Stream size : 27.0 MiB (0%)
  165. Language : Bulgarian
  166. Default : No
  167. Forced : No

  168. Text #7
  169. ID : 11
  170. Format : PGS
  171. Muxing mode : zlib
  172. Codec ID : S_HDMV/PGS
  173. Codec ID/Info : Picture based subtitle format used on BDs/HD-DVDs
  174. Duration : 1 h 26 min
  175. Bit rate : 32.8 kb/s
  176. Count of elements : 2152
  177. Stream size : 20.3 MiB (0%)
  178. Language : Chinese
  179. Default : No
  180. Forced : No

  181. Text #8
  182. ID : 12
  183. Format : PGS
  184. Muxing mode : zlib
  185. Codec ID : S_HDMV/PGS
  186. Codec ID/Info : Picture based subtitle format used on BDs/HD-DVDs
  187. Duration : 1 h 26 min
  188. Bit rate : 34.6 kb/s
  189. Count of elements : 2150
  190. Stream size : 21.4 MiB (0%)
  191. Language : Chinese
  192. Default : No
  193. Forced : No
复制代码


零号病人4k  Patient.Zero.2018.2160p.BCORE.WEB-DL.x265.10bit.HDR.DTS-HD.MA.5.1电影下载

零号病人4k  Patient.Zero.2018.2160p.BCORE.WEB-DL.x265.10bit.HDR.DTS-HD.MA.5.1【46.83GB】
[Hao4k]零号病人4k Patient.Zero.2018.2160p.BCORE.WEB-DL.x265.10bit.HDR.DTS-HD.MA..torrent (117.75 KB)
回复

使用道具 举报

全部回复34

zfence 发表于 2021-5-30 08:56:33

zfence 2

2021-5-30 08:56:33

感谢分享
回复 支持 反对

使用道具 举报

xuy306 发表于 2021-5-30 09:34:22

xuy306 3

2021-5-30 09:34:22

字幕呢?
回复 支持 反对

使用道具 举报

leish 发表于 2021-5-30 10:38:12

leish 4

2021-5-30 10:38:12

感谢分享,最喜欢看动作、科幻、恐怖片了
回复 支持 反对

使用道具 举报

concord3303 发表于 2021-5-30 10:39:29

concord3303 5

2021-5-30 10:39:29

谢谢楼主分享
回复 支持 反对

使用道具 举报

yangly 发表于 2021-5-30 10:47:31

yangly 6

2021-5-30 10:47:31

感谢分享
回复 支持 反对

使用道具 举报

木子李爱睡觉 发表于 2021-5-30 11:35:17 Hao4K手机版

木子李爱睡觉 7

2021-5-30 11:35:17

感谢分享!
回复 支持 反对

使用道具 举报

bbgrnnji 发表于 2021-5-30 12:07:27

bbgrnnji 8

2021-5-30 12:07:27

很有时代感
回复 支持 反对

使用道具 举报

lchlxx 发表于 2021-5-30 15:43:17

lchlxx 9

2021-5-30 15:43:17


谢谢楼主分享
回复 支持 反对

使用道具 举报

馒头哥哥 发表于 2021-5-30 16:32:21

馒头哥哥 10

2021-5-30 16:32:21

谢谢楼主分享
回复 支持 反对

使用道具 举报

mx9001 发表于 2021-5-30 19:57:46

mx9001 11

2021-5-30 19:57:46

应景的片子
回复 支持 反对

使用道具 举报

Qux 发表于 2021-5-30 20:10:39 Hao4K手机版

Qux 12

2021-5-30 20:10:39

感谢楼主分享,坐等字幕先:)
回复 支持 反对

使用道具 举报

张涛 发表于 2021-5-30 20:30:11

张涛 13

2021-5-30 20:30:11

谢谢楼主分享
回复 支持 反对

使用道具 举报

hnmcsky 发表于 2021-5-30 20:45:48

hnmcsky 14

2021-5-30 20:45:48

这部片子看着怎么样?有人看过吗?
回复 支持 反对

使用道具 举报

QQ_1C652F 发表于 2021-5-30 22:44:01

QQ_1C652F 15

2021-5-30 22:44:01

谢谢楼主无私分享
回复 支持 反对

使用道具 举报

dyczw 发表于 2021-5-31 06:30:11

dyczw 16

2021-5-31 06:30:11

感谢分享,辛苦了
回复 支持 反对

使用道具 举报

世爵39 发表于 2021-5-31 08:10:15

世爵39 17

2021-5-31 08:10:15

想不到这影片还发布
回复 支持 反对

使用道具 举报

世爵39 发表于 2021-5-31 08:13:46

世爵39 18

2021-5-31 08:13:46

看过一次,今次下载再回忆这影片
回复 支持 反对

使用道具 举报

   发表回复

您需要登录后才可以回帖 登录 | 立即注册

返回列表 本版积分规则

  • 在线客服

  • 返回顶部