微博 微信

Hao4K影音

电影频道
电影封面:
片  名: 当树枝折断时4k
电影分类: 恐怖 惊悚 剧情 悬疑 
国  家: 美国 
年  代: 2016年
分 辨 率: 4K(3840x2160)
电影格式: MKV|REMUX 
画质标准: HDR 
音质编码: DTS-HD Master Audio 
电影声道: 5.1声道 
帧数/FPS: 23.976 帧
电影语言: 中文简体 中文繁体 英文原版 
资源大小: 58.01 GB
导  演: 强·卡萨
豆瓣评分: 5.6 分
中文字幕: -
剧情简介: 约翰(摩里斯·切斯塔特 Morris Chestnut 饰)和劳拉(雷吉娜·赫尔 Regina Hall 饰)是一对无法生育的夫妻,多年后决定寻找年轻的代理孕妈妈安娜(洁丝·辛克莱 Jaz Sinclair 饰),他们满心欢喜地迎接她为他们诞下新生宝宝。然而年轻的安娜要的不只如此,她逐渐显露企图,闯入他们的生活,想成为婚姻中致命的第三者。
惊魂契约(台) / 新当树枝折断时/当树枝折断时4k When.the.Bough.Breaks.2016.2160p.BCORE.WEB-DL.x265.10bit.HDR.DTS-HD.MA.5.1.4k电影信息
  1. Video
  2. ID : 1
  3. Format : HEVC
  4. Format/Info : High Efficiency Video Coding
  5. Format profile : Main 10@L5.2@High
  6. HDR format : SMPTE ST 2086, HDR10 compatible
  7. Codec ID : V_MPEGH/ISO/HEVC
  8. Duration : 1 h 46 min
  9. Bit rate : 74.1 Mb/s
  10. Width : 3 840 pixels
  11. Height : 2 160 pixels
  12. Display aspect ratio : 16:9
  13. Frame rate mode : Constant
  14. Frame rate : 23.976 (24000/1001) FPS
  15. Color space : YUV
  16. Chroma subsampling : 4:2:0 (Type 2)
  17. Bit depth : 10 bits
  18. Bits/(Pixel*Frame) : 0.373
  19. Stream size : 55.3 GiB (95%)
  20. Language : English
  21. Default : Yes
  22. Forced : No
  23. Color range : Full
  24. Color primaries : BT.2020
  25. Transfer characteristics : PQ
  26. Matrix coefficients : BT.2020 non-constant
  27. Mastering display color primaries : Display P3
  28. Mastering display luminance : min: 0.0050 cd/m2, max: 4000 cd/m2
  29. Maximum Content Light Level : 4390 cd/m2
  30. Maximum Frame-Average Light Level : 733 cd/m2

  31. Audio #1
  32. ID : 2
  33. Format : DTS XLL
  34. Format/Info : Digital Theater Systems
  35. Commercial name : DTS-HD Master Audio
  36. Codec ID : A_DTS
  37. Duration : 1 h 46 min
  38. Bit rate mode : Variable
  39. Bit rate : 2 083 kb/s
  40. Channel(s) : 6 channels
  41. Channel layout : C L R Ls Rs LFE
  42. Sampling rate : 48.0 kHz
  43. Frame rate : 93.750 FPS (512 SPF)
  44. Bit depth : 16 bits
  45. Compression mode : Lossless
  46. Stream size : 1.55 GiB (3%)
  47. Title : DTS-HD MA 5.1
  48. Language : English
  49. Default : Yes
  50. Forced : No

  51. Audio #2
  52. ID : 3
  53. Format : AC-3
  54. Format/Info : Audio Coding 3
  55. Commercial name : Dolby Digital
  56. Codec ID : A_AC3
  57. Duration : 1 h 46 min
  58. Bit rate mode : Constant
  59. Bit rate : 640 kb/s
  60. Channel(s) : 6 channels
  61. Channel layout : L R C LFE Ls Rs
  62. Sampling rate : 48.0 kHz
  63. Frame rate : 31.250 FPS (1536 SPF)
  64. Compression mode : Lossy
  65. Stream size : 489 MiB (1%)
  66. Title : DD 5.1
  67. Language : English
  68. Service kind : Complete Main
  69. Default : No
  70. Forced : No

  71. Audio #3
  72. ID : 4
  73. Format : DTS
  74. Format/Info : Digital Theater Systems
  75. Codec ID : A_DTS
  76. Duration : 1 h 46 min
  77. Bit rate mode : Constant
  78. Bit rate : 768 kb/s
  79. Channel(s) : 6 channels
  80. Channel layout : C L R Ls Rs LFE
  81. Sampling rate : 48.0 kHz
  82. Frame rate : 93.750 FPS (512 SPF)
  83. Bit depth : 24 bits
  84. Compression mode : Lossy
  85. Stream size : 587 MiB (1%)
  86. Title : DTS 5.1
  87. Language : English
  88. Default : No
  89. Forced : No

  90. Text #1
  91. ID : 5
  92. Format : UTF-8
  93. Codec ID : S_TEXT/UTF8
  94. Codec ID/Info : UTF-8 Plain Text
  95. Duration : 1 h 44 min
  96. Bit rate : 71 b/s
  97. Count of elements : 1498
  98. Stream size : 54.6 KiB (0%)
  99. Title : SRT
  100. Language : English
  101. Default : Yes
  102. Forced : No

  103. Text #2
  104. ID : 6
  105. Format : PGS
  106. Muxing mode : zlib
  107. Codec ID : S_HDMV/PGS
  108. Codec ID/Info : Picture based subtitle format used on BDs/HD-DVDs
  109. Duration : 1 h 42 min
  110. Bit rate : 26.1 kb/s
  111. Count of elements : 2156
  112. Stream size : 19.1 MiB (0%)
  113. Title : English-PGS
  114. Language : English
  115. Default : No
  116. Forced : No

  117. Text #3
  118. ID : 7
  119. Format : PGS
  120. Muxing mode : zlib
  121. Codec ID : S_HDMV/PGS
  122. Codec ID/Info : Picture based subtitle format used on BDs/HD-DVDs
  123. Duration : 1 h 44 min
  124. Bit rate : 31.2 kb/s
  125. Count of elements : 2834
  126. Stream size : 23.3 MiB (0%)
  127. Title : English-SDH-PGS
  128. Language : English
  129. Default : No
  130. Forced : No

  131. Text #4
  132. ID : 8
  133. Format : PGS
  134. Muxing mode : zlib
  135. Codec ID : S_HDMV/PGS
  136. Codec ID/Info : Picture based subtitle format used on BDs/HD-DVDs
  137. Duration : 1 h 42 min
  138. Bit rate : 22.3 kb/s
  139. Count of elements : 2184
  140. Stream size : 16.3 MiB (0%)
  141. Title : Chinese-PGS
  142. Language : Chinese
  143. Default : No
  144. Forced : No
复制代码


惊魂契约(台) / 新当树枝折断时/当树枝折断时4k When.the.Bough.Breaks.2016.2160p.BCORE.WEB-DL.x265.10bit.HDR.DTS-HD.MA.5.1.4k电影下载

当树枝折断时4k When.the.Bough.Breaks.2016.2160p.BCORE.WEB-DL.x265.10bit.HDR.DTS-HD.MA.5.1【58.01 GB】
[Hao4k]当树枝折断时4k When.the.Bough.Breaks.2016.2160p.BCORE.WEB-DL.x265.10bit.H.torrent (145.72 KB)
回复

使用道具 举报

全部回复26

leish 发表于 2021-5-30 22:49:16

leish 2

2021-5-30 22:49:16

灰常感谢楼主发布好电影!
回复 支持 反对

使用道具 举报

dvsfs 发表于 2021-5-30 23:37:42

dvsfs 3

2021-5-30 23:37:42

无限发布好电影
回复 支持 反对

使用道具 举报

ywf6168 发表于 2021-5-31 00:15:53 Hao4K手机版

ywf6168 4

2021-5-31 00:15:53

感谢楼主分享好电影
回复 支持 反对

使用道具 举报

取舍5555 发表于 2021-5-31 01:02:57

取舍5555 5

2021-5-31 01:02:57


感谢楼主分享好电影
回复 支持 反对

使用道具 举报

dyczw 发表于 2021-5-31 06:29:19

dyczw 6

2021-5-31 06:29:19

感谢分享,辛苦了
回复 支持 反对

使用道具 举报

fanxianhua 发表于 2021-5-31 08:12:42

fanxianhua 7

2021-5-31 08:12:42

灰常感谢楼主发布好电影!
回复 支持 反对

使用道具 举报

largefish 发表于 2021-5-31 08:14:31

largefish 8

2021-5-31 08:14:31

感谢楼主!
回复 支持 反对

使用道具 举报

iris6267 发表于 2021-5-31 08:32:04

iris6267 9

2021-5-31 08:32:04

感谢分享
回复 支持 反对

使用道具 举报

liuxingyu764 发表于 2021-5-31 08:39:56

liuxingyu764 10

2021-5-31 08:39:56

感谢楼主分享,正在下载中,谢谢
回复 支持 反对

使用道具 举报

bbgrnnji 发表于 2021-5-31 08:52:44

bbgrnnji 11

2021-5-31 08:52:44

发片辛苦了,但片子感觉不怎么样
回复 支持 反对

使用道具 举报

xv6950 发表于 2021-5-31 10:26:11

xv6950 12

2021-5-31 10:26:11


好资源很给力
回复 支持 反对

使用道具 举报

wa_rb 发表于 2021-5-31 11:09:44

wa_rb 13

2021-5-31 11:09:44

感谢发片,评分稍微底了,回帖支持一下
回复 支持 反对

使用道具 举报

yangly 发表于 2021-5-31 13:00:36

yangly 14

2021-5-31 13:00:36


感谢发片
回复 支持 反对

使用道具 举报

拳霸-霸王丸 发表于 2021-5-31 14:07:35

拳霸-霸王丸 15

2021-5-31 14:07:35


感谢分享
回复 支持 反对

使用道具 举报

cdyangjun2019 发表于 2021-5-31 15:30:20

cdyangjun2019 16

2021-5-31 15:30:20

谢谢楼主分享,辛苦了
回复 支持 反对

使用道具 举报

lizhilai1987 发表于 2021-6-1 18:28:03

lizhilai1987 17

2021-6-1 18:28:03

真不错!感谢分享!
回复 支持 反对

使用道具 举报

wybinhua 发表于 2021-6-1 22:49:53

wybinhua 18

2021-6-1 22:49:53

好资源很给力
回复 支持 反对

使用道具 举报

   发表回复

您需要登录后才可以回帖 登录 | 立即注册

返回列表 本版积分规则

  • 在线客服

  • 返回顶部