微博 微信

Hao4K影音

电影频道
电影封面:
片  名: 恐雨4k
电影分类: 恐怖 惊悚 剧情 
国  家: 美国 
年  代: 2021年
分 辨 率: 4K(3840x2160)
电影格式: MKV|REMUX 
画质标准: HDR10 
音质编码: DTS-HD Master Audio 
电影声道: 5.1声道 
帧数/FPS: 23.976 帧
电影语言: 英文原版 
资源大小: 14.26 GB
导  演: 卡斯蒂利·兰登
豆瓣评分: 5.4 分
中文字幕: -
剧情简介: A teenage girl living with schizophrenia begins to suspect her neighbor has kidnapped a child. Her parents try desperately to help her live a normal life, without exposing their own tragic secrets, and the only person who believes her is Caleb – a boy she isn’t even sure exists.
I Saw a Man with Yellow Eyes / 小雨的恐惧/恐雨4k Fear.of.Rain.2021.2160p.AMZN.WEB-DL.x265.10bit.HDR10Plus.DTS-HD.MA.5.1电影信息
  1. Video
  2. ID : 1
  3. Format : HEVC
  4. Format/Info : High Efficiency Video Coding
  5. Format profile : Main 10@L5@Main
  6. HDR format : SMPTE ST 2094 App 4, Version 1, HDR10+ Profile B compatible
  7. Codec ID : V_MPEGH/ISO/HEVC
  8. Duration : 1 h 49 min
  9. Bit rate : 14.8 Mb/s
  10. Width : 3 840 pixels
  11. Height : 2 080 pixels
  12. Display aspect ratio : 1.85:1
  13. Frame rate mode : Constant
  14. Frame rate : 23.976 (24000/1001) FPS
  15. Color space : YUV
  16. Chroma subsampling : 4:2:0
  17. Bit depth : 10 bits
  18. Bits/(Pixel*Frame) : 0.077
  19. Stream size : 11.2 GiB (79%)
  20. Default : Yes
  21. Forced : No
  22. Color range : Limited
  23. Color primaries : BT.2020
  24. Transfer characteristics : PQ
  25. Matrix coefficients : BT.2020 non-constant
  26. Mastering display color primaries : Display P3
  27. Mastering display luminance : min: 0.0001 cd/m2, max: 1000 cd/m2
  28. Maximum Content Light Level : 344 cd/m2
  29. Maximum Frame-Average Light Level : 178 cd/m2

  30. Audio #1
  31. ID : 2
  32. ID in the original source medium : 4352 (0x1100)
  33. Format : DTS XLL
  34. Format/Info : Digital Theater Systems
  35. Commercial name : DTS-HD Master Audio
  36. Codec ID : A_DTS
  37. Duration : 1 h 49 min
  38. Bit rate mode : Variable
  39. Bit rate : 3 266 kb/s
  40. Channel(s) : 6 channels
  41. Channel layout : C L R Ls Rs LFE
  42. Sampling rate : 48.0 kHz
  43. Frame rate : 93.750 FPS (512 SPF)
  44. Bit depth : 24 bits
  45. Compression mode : Lossless
  46. Stream size : 2.49 GiB (17%)
  47. Title : DTS-HD MA 5.1
  48. Language : English
  49. Default : Yes
  50. Forced : No
  51. Original source medium : Blu-ray

  52. Audio #2
  53. ID : 3
  54. Format : E-AC-3
  55. Format/Info : Enhanced AC-3
  56. Commercial name : Dolby Digital Plus
  57. Codec ID : A_EAC3
  58. Duration : 1 h 49 min
  59. Bit rate mode : Constant
  60. Bit rate : 640 kb/s
  61. Channel(s) : 6 channels
  62. Channel layout : L R C LFE Ls Rs
  63. Sampling rate : 48.0 kHz
  64. Frame rate : 31.250 FPS (1536 SPF)
  65. Compression mode : Lossy
  66. Stream size : 499 MiB (3%)
  67. Title : DDP 5.1
  68. Language : English
  69. Service kind : Complete Main
  70. Default : No
  71. Forced : No

  72. Text #1
  73. ID : 4
  74. Format : UTF-8
  75. Codec ID : S_TEXT/UTF8
  76. Codec ID/Info : UTF-8 Plain Text
  77. Duration : 1 h 45 min
  78. Bit rate : 54 b/s
  79. Count of elements : 1401
  80. Stream size : 41.9 KiB (0%)
  81. Title : English-SRT
  82. Language : English
  83. Default : Yes
  84. Forced : No

  85. Text #2
  86. ID : 5
  87. ID in the original source medium : 4608 (0x1200)
  88. Format : PGS
  89. Muxing mode : zlib
  90. Codec ID : S_HDMV/PGS
  91. Codec ID/Info : Picture based subtitle format used on BDs/HD-DVDs
  92. Duration : 1 h 45 min
  93. Bit rate : 34.7 kb/s
  94. Count of elements : 2788
  95. Stream size : 26.1 MiB (0%)
  96. Title : English-PGS
  97. Language : English
  98. Default : No
  99. Forced : No
  100. Original source medium : Blu-ray

  101. Text #3
  102. ID : 6
  103. ID in the original source medium : 4609 (0x1201)
  104. Format : PGS
  105. Muxing mode : zlib
  106. Codec ID : S_HDMV/PGS
  107. Codec ID/Info : Picture based subtitle format used on BDs/HD-DVDs
  108. Duration : 1 h 40 min
  109. Bit rate : 27.1 kb/s
  110. Count of elements : 2350
  111. Stream size : 19.6 MiB (0%)
  112. Title : Spanish-PGS
  113. Language : Spanish
  114. Default : No
  115. Forced : No
  116. Original source medium : Blu-ray

  117. Text #4
  118. ID : 7
  119. ID in the original source medium : 4610 (0x1202)
  120. Format : PGS
  121. Muxing mode : zlib
  122. Codec ID : S_HDMV/PGS
  123. Codec ID/Info : Picture based subtitle format used on BDs/HD-DVDs
  124. Duration : 1 h 40 min
  125. Bit rate : 30.5 kb/s
  126. Count of elements : 2380
  127. Stream size : 22.0 MiB (0%)
  128. Title : English-PGS
  129. Language : English
  130. Default : No
  131. Forced : No
  132. Original source medium : Blu-ray

  133. Menu
  134. 00:00:00.000 : Chapter 01
  135. 00:05:26.200 : Chapter 02
  136. 00:12:52.813 : Chapter 03
  137. 00:18:18.514 : Chapter 04
  138. 00:25:00.540 : Chapter 05
  139. 00:30:33.456 : Chapter 06
  140. 00:37:22.073 : Chapter 07
  141. 00:44:46.100 : Chapter 08
  142. 00:53:12.731 : Chapter 09
  143. 00:58:59.827 : Chapter 10
  144. 01:05:07.445 : Chapter 11
  145. 01:12:19.835 : Chapter 12
  146. 01:18:57.441 : Chapter 13
  147. 01:24:32.233 : Chapter 14
  148. 01:29:01.627 : Chapter 15
  149. 01:40:44.663 : Chapter 16
复制代码
I Saw a Man with Yellow Eyes / 小雨的恐惧/恐雨4k Fear.of.Rain.2021.2160p.AMZN.WEB-DL.x265.10bit.HDR10Plus.DTS-HD.MA.5.1电影信息

恐雨4k Fear.of.Rain.2021.2160p.AMZN.WEB-DL.x265.10bit.HDR10Plus.DTS-HD.MA.5.1【4K HDR 14.26GB】
[hao4k]恐雨4k Fear.of.Rain.2021.2160p.AMZN.WEB-DL.x265.10bit.HDR10Plus.DTS-HD.MA.torrent (71.96 KB)
分享到:  QQ好友和群QQ好友和群
回复

使用道具 举报

全部回复17

2
淡淡感动 发表于 2021-5-31 21:17:04

淡淡感动 2

2021-5-31 21:17:04

感谢楼主分享
回复 支持 反对

使用道具 举报

3
Mathk 发表于 2021-5-31 21:32:07

Mathk 3

2021-5-31 21:32:07

Thanks  a   lots  ..............  !!!
回复 支持 反对

使用道具 举报

4
Mathk 发表于 2021-5-31 21:32:49

Mathk 4

2021-5-31 21:32:49

Thanks  a   lots  ..............  !!!
回复 支持 0 反对 0

使用道具 举报

5
bbgrnnji 发表于 2021-6-1 08:05:58

bbgrnnji 5

2021-6-1 08:05:58

4K绝对是对恐怖片情有独钟
回复 支持 反对

使用道具 举报

6
chakoo 发表于 2021-6-1 10:57:11

chakoo 6

2021-6-1 10:57:11

多谢楼主分享
回复 支持 反对

使用道具 举报

7
ggang 发表于 2021-6-1 14:11:19

ggang 7

2021-6-1 14:11:19

多谢楼主的分享;
回复 支持 反对

使用道具 举报

8
散步的人 发表于 2021-6-2 09:40:36

散步的人 8

2021-6-2 09:40:36

感谢楼主分享
回复 支持 反对

使用道具 举报

9
张涛 发表于 2021-6-3 13:19:42

张涛 9

2021-6-3 13:19:42

感谢楼主分享
回复 支持 反对

使用道具 举报

10
STAR156 发表于 2021-6-6 11:44:12

STAR156 10

2021-6-6 11:44:12

没字幕吗
回复 支持 反对

使用道具 举报

11
mmmmike 发表于 2021-6-7 19:46:53

mmmmike 11

2021-6-7 19:46:53

感谢楼主分享
回复 支持 反对

使用道具 举报

12
bainfun 发表于 2021-6-8 14:01:20

bainfun 12

2021-6-8 14:01:20

等字幕哈哈
回复 支持 反对

使用道具 举报

13
zhucheng 发表于 2021-6-8 19:27:51

zhucheng 13

2021-6-8 19:27:51

有没有字幕分享一下
回复 支持 反对

使用道具 举报

14
chengwap 发表于 2021-6-8 20:44:56 Hao4K手机版

chengwap 14

2021-6-8 20:44:56

谢谢分享
回复 支持 反对

使用道具 举报

15
56789trewq 发表于 7 天前

56789trewq 15

7 天前

感謝樓主分享好電影,希望以後還能繼續看到更多的資源!
回复 支持 反对

使用道具 举报

16
arsonchan 发表于 4 天前

arsonchan 16

4 天前

感谢楼主分享!!!!!!!!!!!!
回复 支持 反对

使用道具 举报

17
oink 发表于 4 天前 Hao4K手机版

oink 17

4 天前

新人报道,好看吗
回复 支持 反对

使用道具 举报

18
xiefei1978 发表于 昨天 14:12

xiefei1978 18

昨天 14:12

谢楼主分享
回复 支持 反对

使用道具 举报

   发表回复

您需要登录后才可以回帖 登录 | 立即注册

返回列表 本版积分规则

  • 在线客服

  • 返回顶部