微博 微信

Hao4K影音

电影频道
电影封面:
片  名: 五尺天涯4k
电影分类: 剧情 爱情片 
国  家: 美国 
年  代: 2019年
分 辨 率: 4K(3840x2160)
电影格式: MKV|REMUX 
画质标准: HDR10 
音质编码: DTS-HD Master Audio 
电影声道: 5.1声道 
帧数/FPS: 23.976 帧
电影语言: 英文原版 
资源大小: 15.16 GB
导  演: 贾斯汀·贝尔杜尼
豆瓣评分: 7.3 分
中文字幕: -
剧情简介: 女孩斯黛拉(海莉·露·理查森 Haley Lu Richardson 饰)在医院结识了男孩威尔(科尔·斯普罗斯 Cole Sprouse 饰),但因为“囊性纤维化”疾病,他们之间的相处必须永远相隔“六英尺”,即使触不可及也不能阻挡两人逐渐升温的情愫。他们的爱情能够战胜疾病和死亡吗?
我的五步男朋友(港) / 爱上触不到的你(台) / 五英尺的距离 / 相隔五英尺/五尺天涯4k Five.Feet.Apart.2019.2160p.AMZN.WEB-DL.x265.10bit.HDR10Plus.DTS-HD.MA.5.1电影信息
  1. Video
  2. ID : 1
  3. Format : HEVC
  4. Format/Info : High Efficiency Video Coding
  5. Format profile : Main 10@L5@Main
  6. HDR format : SMPTE ST 2094 App 4, Version 1, HDR10+ Profile B compatible
  7. Codec ID : V_MPEGH/ISO/HEVC
  8. Duration : 1 h 56 min
  9. Bit rate : 14.7 Mb/s
  10. Width : 3 840 pixels
  11. Height : 1 600 pixels
  12. Display aspect ratio : 2.40:1
  13. Frame rate mode : Constant
  14. Frame rate : 23.976 (24000/1001) FPS
  15. Color space : YUV
  16. Chroma subsampling : 4:2:0
  17. Bit depth : 10 bits
  18. Bits/(Pixel*Frame) : 0.100
  19. Stream size : 12.0 GiB (79%)
  20. Default : Yes
  21. Forced : No
  22. Color range : Limited
  23. Color primaries : BT.2020
  24. Transfer characteristics : PQ
  25. Matrix coefficients : BT.2020 non-constant
  26. Mastering display color primaries : Display P3
  27. Mastering display luminance : min: 0.0050 cd/m2, max: 1000 cd/m2
  28. Maximum Content Light Level : 975 cd/m2
  29. Maximum Frame-Average Light Level : 212 cd/m2

  30. Audio #1
  31. ID : 2
  32. Format : DTS XLL
  33. Format/Info : Digital Theater Systems
  34. Commercial name : DTS-HD Master Audio
  35. Codec ID : A_DTS
  36. Duration : 1 h 56 min
  37. Bit rate mode : Variable
  38. Bit rate : 3 279 kb/s
  39. Channel(s) : 6 channels
  40. Channel layout : C L R Ls Rs LFE
  41. Sampling rate : 48.0 kHz
  42. Frame rate : 93.750 FPS (512 SPF)
  43. Bit depth : 24 bits
  44. Compression mode : Lossless
  45. Stream size : 2.66 GiB (18%)
  46. Title : DTS-HD MA 5.1
  47. Language : English
  48. Default : Yes
  49. Forced : No

  50. Audio #2
  51. ID : 3
  52. Format : E-AC-3
  53. Format/Info : Enhanced AC-3
  54. Commercial name : Dolby Digital Plus
  55. Codec ID : A_EAC3
  56. Duration : 1 h 56 min
  57. Bit rate mode : Constant
  58. Bit rate : 640 kb/s
  59. Channel(s) : 6 channels
  60. Channel layout : L R C LFE Ls Rs
  61. Sampling rate : 48.0 kHz
  62. Frame rate : 31.250 FPS (1536 SPF)
  63. Compression mode : Lossy
  64. Stream size : 532 MiB (3%)
  65. Title : DDP 5.1
  66. Language : English
  67. Service kind : Complete Main
  68. Default : No
  69. Forced : No

  70. Text #1
  71. ID : 4
  72. Format : UTF-8
  73. Codec ID : S_TEXT/UTF8
  74. Codec ID/Info : UTF-8 Plain Text
  75. Duration : 1 h 49 min
  76. Bit rate : 46 b/s
  77. Count of elements : 1599
  78. Stream size : 37.8 KiB (0%)
  79. Title : English-SRT
  80. Language : English
  81. Default : Yes
  82. Forced : No

  83. Text #2
  84. ID : 5
  85. Format : PGS
  86. Muxing mode : zlib
  87. Codec ID : S_HDMV/PGS
  88. Codec ID/Info : Picture based subtitle format used on BDs/HD-DVDs
  89. Duration : 1 h 53 min
  90. Bit rate : 34.0 kb/s
  91. Count of elements : 2884
  92. Stream size : 27.6 MiB (0%)
  93. Title : English-PGS
  94. Language : English
  95. Default : No
  96. Forced : No

  97. Text #3
  98. ID : 6
  99. Format : PGS
  100. Muxing mode : zlib
  101. Codec ID : S_HDMV/PGS
  102. Codec ID/Info : Picture based subtitle format used on BDs/HD-DVDs
  103. Duration : 1 h 51 min
  104. Bit rate : 28.8 kb/s
  105. Count of elements : 2196
  106. Stream size : 23.0 MiB (0%)
  107. Title : Spanish-PGS
  108. Language : Spanish
  109. Default : No
  110. Forced : No

  111. Menu
  112. 00:00:00.000 : Chapter 1
  113. 00:07:17.645 : Chapter 2
  114. 00:13:52.206 : Chapter 3
  115. 00:21:20.029 : Chapter 4
  116. 00:29:33.063 : Chapter 5
  117. 00:36:43.034 : Chapter 6
  118. 00:42:55.323 : Chapter 7
  119. 00:49:26.755 : Chapter 8
  120. 00:58:30.215 : Chapter 9
  121. 01:07:03.144 : Chapter 10
  122. 01:11:37.001 : Chapter 11
  123. 01:18:55.439 : Chapter 12
  124. 01:28:41.900 : Chapter 13
  125. 01:36:52.765 : Chapter 14
  126. 01:41:37.883 : Chapter 15
  127. 01:49:11.878 : Chapter 16
复制代码


我的五步男朋友(港) / 爱上触不到的你(台) / 五英尺的距离 / 相隔五英尺/五尺天涯4k Five.Feet.Apart.2019.2160p.AMZN.WEB-DL.x265.10bit.HDR10Plus.DTS-HD.MA.5.1电影下载

五尺天涯4k Five.Feet.Apart.2019.2160p.AMZN.WEB-DL.x265.10bit.HDR10Plus.DTS-HD.MA.5.1【15.16GB】
[Hao4k]五尺天涯4k Five.Feet.Apart.2019.2160p.AMZN.WEB-DL.x265.10bit.HDR10Plus.DT.torrent (76.5 KB)
回复

使用道具 举报

全部回复17

w6527518 发表于 2021-5-31 20:25:24 Hao4K手机版

w6527518 2

2021-5-31 20:25:24

沙发坐一坐
回复 支持 反对

使用道具 举报

vincent4587 发表于 2021-5-31 21:14:10

vincent4587 3

2021-5-31 21:14:10

片子还可以,谢谢分享
回复 支持 反对

使用道具 举报

淡淡感动 发表于 2021-5-31 21:14:55

淡淡感动 4

2021-5-31 21:14:55

感谢楼主分享
回复 支持 反对

使用道具 举报

jerryzhao1818 发表于 2021-5-31 22:22:10

jerryzhao1818 5

2021-5-31 22:22:10


感谢楼主分享
回复 支持 反对

使用道具 举报

wybinhua 发表于 2021-5-31 22:31:19

wybinhua 6

2021-5-31 22:31:19

谢谢分享
回复 支持 反对

使用道具 举报

iris6267 发表于 2021-6-1 08:22:32

iris6267 7

2021-6-1 08:22:32

谢谢分享
回复 支持 反对

使用道具 举报

cs6699 发表于 2021-6-1 08:37:57

cs6699 8

2021-6-1 08:37:57

剧情片???
回复 支持 反对

使用道具 举报

cdyangjun2019 发表于 2021-6-1 10:24:29

cdyangjun2019 9

2021-6-1 10:24:29

分数比较高,谢谢楼主分享
回复 支持 反对

使用道具 举报

13908609111 发表于 2021-6-2 18:08:53

13908609111 10

2021-6-2 18:08:53

感谢楼主分享
回复 支持 反对

使用道具 举报

bosun0214 发表于 2021-6-2 20:44:21

bosun0214 11

2021-6-2 20:44:21

没有字幕
回复 支持 反对

使用道具 举报

黑猫警长ryj 发表于 2021-6-2 22:24:16

黑猫警长ryj 12

2021-6-2 22:24:16

好资源很给力
回复 支持 反对

使用道具 举报

mo814876560 发表于 2021-6-7 08:11:36

mo814876560 13

2021-6-7 08:11:36

喜欢,感谢楼主分享。
回复 支持 反对

使用道具 举报

56789trewq 发表于 2021-6-7 10:05:53

56789trewq 14

2021-6-7 10:05:53

感謝樓主分享好電影,希望以後還能繼續看到更多的資源!
回复 支持 反对

使用道具 举报

leedaye 发表于 2021-6-7 20:04:23

leedaye 15

2021-6-7 20:04:23

喜欢这种剧情片,不做作,谢谢分享。
回复 支持 反对

使用道具 举报

andrewlin 发表于 2021-6-7 21:35:43

andrewlin 16

2021-6-7 21:35:43

感谢楼主分享
回复 支持 反对

使用道具 举报

ljjdy 发表于 2021-6-9 11:51:43

ljjdy 17

2021-6-9 11:51:43

很好的爱情片,很纯粹
回复 支持 反对

使用道具 举报

56789trewq 发表于 7 天前

56789trewq 18

7 天前

感謝樓主分享好電影,希望以後還能繼續看到更多的資源!
回复 支持 反对

使用道具 举报

   发表回复

您需要登录后才可以回帖 登录 | 立即注册

返回列表 本版积分规则

关闭

站内通知上一条 /1 下一条

  • 在线客服

  • 返回顶部