微博 微信

Hao4K影音

电影频道
电影封面:
片  名: Savage X Fenty Show 4k
电影分类: 传记 
国  家: 美国 
年  代: 2019年
分 辨 率: 4K(3840x2160)
电影格式: MKV|REMUX 
画质标准: HDR 10+ 
音质编码: Dolby Digital Plus Audio 
电影声道: 5.1声道 
帧数/FPS: 23.976 帧
电影语言: 英文原版 
资源大小: 5.51 GB
导  演: 艾力克斯·鲁津斯基
豆瓣评分: 8.8 分
中文字幕: -
剧情简介: -
Savage.X.Fenty.Show.2019.2160p.AMZN.WEB-DL.x265.10bit.HDR10Plus.DDP5.1.4k纪录片信息
  1. Video
  2. ID : 1
  3. Format : HEVC
  4. Format/Info : High Efficiency Video Coding
  5. Format profile : Main 10@L5@Main
  6. HDR format : SMPTE ST 2094 App 4, Version 1, HDR10+ Profile B compatible
  7. Codec ID : V_MPEGH/ISO/HEVC
  8. Duration : 50 min 53 s
  9. Bit rate : 14.9 Mb/s
  10. Width : 3 840 pixels
  11. Height : 2 160 pixels
  12. Display aspect ratio : 16:9
  13. Frame rate mode : Constant
  14. Frame rate : 23.976 (24000/1001) FPS
  15. Color space : YUV
  16. Chroma subsampling : 4:2:0
  17. Bit depth : 10 bits
  18. Bits/(Pixel*Frame) : 0.075
  19. Stream size : 5.28 GiB (96%)
  20. Default : Yes
  21. Forced : No
  22. Color range : Limited
  23. Color primaries : BT.2020
  24. Transfer characteristics : PQ
  25. Matrix coefficients : BT.2020 non-constant
  26. Mastering display color primaries : Display P3
  27. Mastering display luminance : min: 0.0001 cd/m2, max: 1000 cd/m2
  28. Maximum Content Light Level : 973 cd/m2
  29. Maximum Frame-Average Light Level : 248 cd/m2

  30. Audio
  31. ID : 2
  32. Format : E-AC-3
  33. Format/Info : Enhanced AC-3
  34. Commercial name : Dolby Digital Plus
  35. Codec ID : A_EAC3
  36. Duration : 50 min 53 s
  37. Bit rate mode : Constant
  38. Bit rate : 640 kb/s
  39. Channel(s) : 6 channels
  40. Channel layout : L R C LFE Ls Rs
  41. Sampling rate : 48.0 kHz
  42. Frame rate : 31.250 FPS (1536 SPF)
  43. Compression mode : Lossy
  44. Stream size : 233 MiB (4%)
  45. Language : English
  46. Service kind : Complete Main
  47. Default : Yes
  48. Forced : No

  49. Text #1
  50. ID : 3
  51. Format : UTF-8
  52. Codec ID : S_TEXT/UTF8
  53. Codec ID/Info : UTF-8 Plain Text
  54. Duration : 50 min 27 s
  55. Bit rate : 108 b/s
  56. Count of elements : 1296
  57. Stream size : 40.1 KiB (0%)
  58. Language : English
  59. Default : Yes
  60. Forced : No

  61. Text #2
  62. ID : 4
  63. Format : UTF-8
  64. Codec ID : S_TEXT/UTF8
  65. Codec ID/Info : UTF-8 Plain Text
  66. Duration : 50 min 35 s
  67. Bit rate : 57 b/s
  68. Count of elements : 357
  69. Stream size : 21.3 KiB (0%)
  70. Language : Arabic
  71. Default : No
  72. Forced : No

  73. Text #3
  74. ID : 5
  75. Format : UTF-8
  76. Codec ID : S_TEXT/UTF8
  77. Codec ID/Info : UTF-8 Plain Text
  78. Duration : 50 min 36 s
  79. Bit rate : 29 b/s
  80. Count of elements : 335
  81. Stream size : 10.8 KiB (0%)
  82. Language : Czech
  83. Default : No
  84. Forced : No

  85. Text #4
  86. ID : 6
  87. Format : UTF-8
  88. Codec ID : S_TEXT/UTF8
  89. Codec ID/Info : UTF-8 Plain Text
  90. Duration : 50 min 35 s
  91. Bit rate : 30 b/s
  92. Count of elements : 329
  93. Stream size : 11.3 KiB (0%)
  94. Language : Danish
  95. Default : No
  96. Forced : No

  97. Text #5
  98. ID : 7
  99. Format : UTF-8
  100. Codec ID : S_TEXT/UTF8
  101. Codec ID/Info : UTF-8 Plain Text
  102. Duration : 50 min 35 s
  103. Bit rate : 26 b/s
  104. Count of elements : 262
  105. Stream size : 9.94 KiB (0%)
  106. Language : German
  107. Default : No
  108. Forced : No

  109. Text #6
  110. ID : 8
  111. Format : UTF-8
  112. Codec ID : S_TEXT/UTF8
  113. Codec ID/Info : UTF-8 Plain Text
  114. Duration : 50 min 36 s
  115. Bit rate : 51 b/s
  116. Count of elements : 352
  117. Stream size : 19.1 KiB (0%)
  118. Language : Greek
  119. Default : No
  120. Forced : No

  121. Text #7
  122. ID : 9
  123. Format : UTF-8
  124. Codec ID : S_TEXT/UTF8
  125. Codec ID/Info : UTF-8 Plain Text
  126. Duration : 50 min 35 s
  127. Bit rate : 32 b/s
  128. Count of elements : 343
  129. Stream size : 12.2 KiB (0%)
  130. Language : Spanish
  131. Default : No
  132. Forced : No

  133. Text #8
  134. ID : 10
  135. Format : UTF-8
  136. Codec ID : S_TEXT/UTF8
  137. Codec ID/Info : UTF-8 Plain Text
  138. Duration : 50 min 35 s
  139. Bit rate : 33 b/s
  140. Count of elements : 343
  141. Stream size : 12.4 KiB (0%)
  142. Language : Spanish
  143. Default : No
  144. Forced : No

  145. Text #9
  146. ID : 11
  147. Format : UTF-8
  148. Codec ID : S_TEXT/UTF8
  149. Codec ID/Info : UTF-8 Plain Text
  150. Duration : 50 min 35 s
  151. Bit rate : 28 b/s
  152. Count of elements : 331
  153. Stream size : 10.5 KiB (0%)
  154. Language : Finnish
  155. Default : No
  156. Forced : No

  157. Text #10
  158. ID : 12
  159. Format : UTF-8
  160. Codec ID : S_TEXT/UTF8
  161. Codec ID/Info : UTF-8 Plain Text
  162. Duration : 50 min 36 s
  163. Bit rate : 27 b/s
  164. Count of elements : 298
  165. Stream size : 10.4 KiB (0%)
  166. Language : fil
  167. Default : No
  168. Forced : No

  169. Text #11
  170. ID : 13
  171. Format : UTF-8
  172. Codec ID : S_TEXT/UTF8
  173. Codec ID/Info : UTF-8 Plain Text
  174. Duration : 50 min 35 s
  175. Bit rate : 30 b/s
  176. Count of elements : 330
  177. Stream size : 11.4 KiB (0%)
  178. Language : French
  179. Default : No
  180. Forced : No

  181. Text #12
  182. ID : 14
  183. Format : UTF-8
  184. Codec ID : S_TEXT/UTF8
  185. Codec ID/Info : UTF-8 Plain Text
  186. Duration : 50 min 35 s
  187. Bit rate : 54 b/s
  188. Count of elements : 357
  189. Stream size : 20.1 KiB (0%)
  190. Language : Hebrew
  191. Default : No
  192. Forced : No

  193. Text #13
  194. ID : 15
  195. Format : UTF-8
  196. Codec ID : S_TEXT/UTF8
  197. Codec ID/Info : UTF-8 Plain Text
  198. Duration : 50 min 35 s
  199. Bit rate : 89 b/s
  200. Count of elements : 357
  201. Stream size : 33.2 KiB (0%)
  202. Language : Hindi
  203. Default : No
  204. Forced : No

  205. Text #14
  206. ID : 16
  207. Format : UTF-8
  208. Codec ID : S_TEXT/UTF8
  209. Codec ID/Info : UTF-8 Plain Text
  210. Duration : 50 min 36 s
  211. Bit rate : 29 b/s
  212. Count of elements : 346
  213. Stream size : 10.9 KiB (0%)
  214. Language : Hungarian
  215. Default : No
  216. Forced : No

  217. Text #15
  218. ID : 17
  219. Format : UTF-8
  220. Codec ID : S_TEXT/UTF8
  221. Codec ID/Info : UTF-8 Plain Text
  222. Duration : 50 min 35 s
  223. Bit rate : 30 b/s
  224. Count of elements : 336
  225. Stream size : 11.4 KiB (0%)
  226. Language : Indonesian
  227. Default : No
  228. Forced : No

  229. Text #16
  230. ID : 18
  231. Format : UTF-8
  232. Codec ID : S_TEXT/UTF8
  233. Codec ID/Info : UTF-8 Plain Text
  234. Duration : 50 min 35 s
  235. Bit rate : 28 b/s
  236. Count of elements : 322
  237. Stream size : 10.5 KiB (0%)
  238. Language : Italian
  239. Default : No
  240. Forced : No

  241. Text #17
  242. ID : 19
  243. Format : UTF-8
  244. Codec ID : S_TEXT/UTF8
  245. Codec ID/Info : UTF-8 Plain Text
  246. Duration : 50 min 35 s
  247. Bit rate : 42 b/s
  248. Count of elements : 335
  249. Stream size : 15.8 KiB (0%)
  250. Language : Japanese
  251. Default : No
  252. Forced : No

  253. Text #18
  254. ID : 20
  255. Format : UTF-8
  256. Codec ID : S_TEXT/UTF8
  257. Codec ID/Info : UTF-8 Plain Text
  258. Duration : 50 min 35 s
  259. Bit rate : 35 b/s
  260. Count of elements : 355
  261. Stream size : 13.2 KiB (0%)
  262. Language : Korean
  263. Default : No
  264. Forced : No
复制代码


Savage.X.Fenty.Show.2019.2160p.AMZN.WEB-DL.x265.10bit.HDR10Plus.DDP5.1.4k纪录片下载

Savage.X.Fenty.Show.2019.2160p.AMZN.WEB-DL.x265.10bit.HDR10Plus.DDP5.1【5.51 GB】
Savage.X.Fenty.Show.2019.2160p.AMZN.WEB-DL.x265.10bit.HDR10Plus.DDP5.1-SWTYBLZ.torrent (28.23 KB, 售价: 2 K币)
回复

使用道具 举报

全部回复28

bulleye 发表于 2021-6-1 09:49:35

bulleye 2

2021-6-1 09:49:35

谢谢楼主无私分享。希望效果不错。
回复 支持 反对

使用道具 举报

dyczw 发表于 2021-6-1 14:04:36

dyczw 3

2021-6-1 14:04:36

感谢分享,辛苦了
回复 支持 反对

使用道具 举报

ggang 发表于 2021-6-1 14:11:03

ggang 4

2021-6-1 14:11:03

多谢楼主的分享;
回复 支持 反对

使用道具 举报

liyun80000 发表于 2021-6-1 14:18:57

liyun80000 5

2021-6-1 14:18:57

谢谢分享了
回复 支持 反对

使用道具 举报

阿浩773 发表于 2021-6-1 18:27:27

阿浩773 6

2021-6-1 18:27:27

谢谢楼主无私分享。希望效果不错。
回复 支持 反对

使用道具 举报

hhhz 发表于 2021-6-1 20:47:10

hhhz 7

2021-6-1 20:47:10

豆瓣8.8,下来看看!
回复 支持 反对

使用道具 举报

1445336389 发表于 2021-6-2 00:01:24

1445336389 8

2021-6-2 00:01:24

多谢楼主的分享;
回复 支持 反对

使用道具 举报

伊犁 发表于 2021-6-2 00:02:30

伊犁 9

2021-6-2 00:02:30

感谢分享
回复 支持 1 反对 0

使用道具 举报

sunny830 发表于 2021-6-2 02:45:24

sunny830 10

2021-6-2 02:45:24


多谢楼主的分享
回复 支持 反对

使用道具 举报

sunny830 发表于 2021-6-2 02:47:11

sunny830 11

2021-6-2 02:47:11


多谢楼主的分享
回复 支持 反对

使用道具 举报

woai4kmv 发表于 2021-6-2 08:30:49

woai4kmv 12

2021-6-2 08:30:49

感谢楼主提供的资源
回复 支持 反对

使用道具 举报

一个浪子 发表于 2021-6-2 09:19:43

一个浪子 13

2021-6-2 09:19:43


感谢楼主提供的资源
回复 支持 反对

使用道具 举报

xuyifan 发表于 2021-6-2 09:30:37

xuyifan 14

2021-6-2 09:30:37

谢谢分享
回复 支持 反对

使用道具 举报

HAI968226 发表于 2021-6-2 09:42:41

HAI968226 15

2021-6-2 09:42:41

什么内容?
回复 支持 反对

使用道具 举报

世爵39 发表于 2021-6-2 10:24:44

世爵39 16

2021-6-2 10:24:44

这传记人物是谁???
回复 支持 反对

使用道具 举报

ender666 发表于 2021-6-2 13:51:26

ender666 17

2021-6-2 13:51:26

感谢 感谢~~~
回复 支持 反对

使用道具 举报

lqsong 发表于 2021-6-3 09:01:28

lqsong 18

2021-6-3 09:01:28

多谢楼主的分享
回复 支持 反对

使用道具 举报

   发表回复

您需要登录后才可以回帖 登录 | 立即注册

返回列表 本版积分规则

  • 在线客服

  • 返回顶部