微博 微信

Hao4K影音

电影频道
电影封面:
片  名: 蕾哈娜内衣秀4k
电影分类: 其他 
国  家: 美国 
年  代: 2020年
分 辨 率: 4K(3840x2160)
电影格式: MKV|REMUX 
画质标准: HDR10 
音质编码: Dolby Digital Plus Audio 
电影声道: 5.1声道 
帧数/FPS: 23.976 帧
电影语言: 英文原版 
资源大小: 5.97 GB
导  演: 艾力克斯·鲁津斯基 / Sandrine Orabona
豆瓣评分: 7.0 分
中文字幕: -
剧情简介: Savage X Fenty Show让我们看到蕾哈娜最新内衣系列的创作过程。以令人难以置信的、多样化的天才为榜样;由最炙手可热的音乐艺术家们带来表演。
蕾哈娜内衣秀4k Savage.X.Fenty.Show.Vol.2.2020.2160p.AMZN.WEB-DL.x265.10bit.HDR10Plus.DDP5.1.纪录片信息
  1. Video
  2. ID : 1
  3. Format : HEVC
  4. Format/Info : High Efficiency Video Coding
  5. Format profile : Main 10@L5@Main
  6. HDR format : SMPTE ST 2094 App 4, Version 1, HDR10+ Profile B compatible
  7. Codec ID : V_MPEGH/ISO/HEVC
  8. Duration : 56 min 14 s
  9. Bit rate : 14.6 Mb/s
  10. Width : 3 840 pixels
  11. Height : 2 160 pixels
  12. Display aspect ratio : 16:9
  13. Frame rate mode : Constant
  14. Frame rate : 23.976 (24000/1001) FPS
  15. Color space : YUV
  16. Chroma subsampling : 4:2:0
  17. Bit depth : 10 bits
  18. Bits/(Pixel*Frame) : 0.073
  19. Stream size : 5.72 GiB (96%)
  20. Default : Yes
  21. Forced : No
  22. Color range : Limited
  23. Color primaries : BT.2020
  24. Transfer characteristics : PQ
  25. Matrix coefficients : BT.2020 non-constant
  26. Mastering display color primaries : Display P3
  27. Mastering display luminance : min: 0.0001 cd/m2, max: 1000 cd/m2
  28. Maximum Content Light Level : 1569 cd/m2
  29. Maximum Frame-Average Light Level : 574 cd/m2

  30. Audio
  31. ID : 2
  32. Format : E-AC-3
  33. Format/Info : Enhanced AC-3
  34. Commercial name : Dolby Digital Plus
  35. Codec ID : A_EAC3
  36. Duration : 56 min 14 s
  37. Bit rate mode : Constant
  38. Bit rate : 640 kb/s
  39. Channel(s) : 6 channels
  40. Channel layout : L R C LFE Ls Rs
  41. Sampling rate : 48.0 kHz
  42. Frame rate : 31.250 FPS (1536 SPF)
  43. Compression mode : Lossy
  44. Stream size : 257 MiB (4%)
  45. Language : English
  46. Service kind : Complete Main
  47. Default : Yes
  48. Forced : No

  49. Text #1
  50. ID : 3
  51. Format : UTF-8
  52. Codec ID : S_TEXT/UTF8
  53. Codec ID/Info : UTF-8 Plain Text
  54. Duration : 55 min 0 s
  55. Bit rate : 69 b/s
  56. Count of elements : 863
  57. Stream size : 27.9 KiB (0%)
  58. Language : English
  59. Default : Yes
  60. Forced : No

  61. Text #2
  62. ID : 4
  63. Format : UTF-8
  64. Codec ID : S_TEXT/UTF8
  65. Codec ID/Info : UTF-8 Plain Text
  66. Duration : 32 min 31 s
  67. Bit rate : 3 b/s
  68. Count of elements : 20
  69. Stream size : 747 Bytes (0%)
  70. Language : English
  71. Default : No
  72. Forced : Yes

  73. Text #3
  74. ID : 5
  75. Format : UTF-8
  76. Codec ID : S_TEXT/UTF8
  77. Codec ID/Info : UTF-8 Plain Text
  78. Duration : 55 min 59 s
  79. Bit rate : 35 b/s
  80. Count of elements : 267
  81. Stream size : 14.4 KiB (0%)
  82. Language : Arabic
  83. Default : No
  84. Forced : No

  85. Text #4
  86. ID : 6
  87. Format : UTF-8
  88. Codec ID : S_TEXT/UTF8
  89. Codec ID/Info : UTF-8 Plain Text
  90. Duration : 55 min 59 s
  91. Bit rate : 20 b/s
  92. Count of elements : 248
  93. Stream size : 8.41 KiB (0%)
  94. Language : Danish
  95. Default : No
  96. Forced : No

  97. Text #5
  98. ID : 7
  99. Format : UTF-8
  100. Codec ID : S_TEXT/UTF8
  101. Codec ID/Info : UTF-8 Plain Text
  102. Duration : 55 min 59 s
  103. Bit rate : 23 b/s
  104. Count of elements : 237
  105. Stream size : 9.56 KiB (0%)
  106. Language : German
  107. Default : No
  108. Forced : No

  109. Text #6
  110. ID : 8
  111. Format : UTF-8
  112. Codec ID : S_TEXT/UTF8
  113. Codec ID/Info : UTF-8 Plain Text
  114. Duration : 55 min 59 s
  115. Bit rate : 21 b/s
  116. Count of elements : 248
  117. Stream size : 8.89 KiB (0%)
  118. Language : Spanish
  119. Default : No
  120. Forced : No

  121. Text #7
  122. ID : 9
  123. Format : UTF-8
  124. Codec ID : S_TEXT/UTF8
  125. Codec ID/Info : UTF-8 Plain Text
  126. Duration : 55 min 59 s
  127. Bit rate : 21 b/s
  128. Count of elements : 249
  129. Stream size : 8.95 KiB (0%)
  130. Language : Spanish
  131. Default : No
  132. Forced : No

  133. Text #8
  134. ID : 10
  135. Format : UTF-8
  136. Codec ID : S_TEXT/UTF8
  137. Codec ID/Info : UTF-8 Plain Text
  138. Duration : 55 min 59 s
  139. Bit rate : 19 b/s
  140. Count of elements : 248
  141. Stream size : 8.06 KiB (0%)
  142. Language : Finnish
  143. Default : No
  144. Forced : No

  145. Text #9
  146. ID : 11
  147. Format : UTF-8
  148. Codec ID : S_TEXT/UTF8
  149. Codec ID/Info : UTF-8 Plain Text
  150. Duration : 55 min 59 s
  151. Bit rate : 21 b/s
  152. Count of elements : 244
  153. Stream size : 8.68 KiB (0%)
  154. Language : fil
  155. Default : No
  156. Forced : No

  157. Text #10
  158. ID : 12
  159. Format : UTF-8
  160. Codec ID : S_TEXT/UTF8
  161. Codec ID/Info : UTF-8 Plain Text
  162. Duration : 55 min 59 s
  163. Bit rate : 21 b/s
  164. Count of elements : 248
  165. Stream size : 8.98 KiB (0%)
  166. Language : French
  167. Default : No
  168. Forced : No

  169. Text #11
  170. ID : 13
  171. Format : UTF-8
  172. Codec ID : S_TEXT/UTF8
  173. Codec ID/Info : UTF-8 Plain Text
  174. Duration : 55 min 59 s
  175. Bit rate : 35 b/s
  176. Count of elements : 266
  177. Stream size : 14.4 KiB (0%)
  178. Language : Hebrew
  179. Default : No
  180. Forced : No

  181. Text #12
  182. ID : 14
  183. Format : UTF-8
  184. Codec ID : S_TEXT/UTF8
  185. Codec ID/Info : UTF-8 Plain Text
  186. Duration : 55 min 59 s
  187. Bit rate : 57 b/s
  188. Count of elements : 266
  189. Stream size : 23.6 KiB (0%)
  190. Language : Hindi
  191. Default : No
  192. Forced : No

  193. Text #13
  194. ID : 15
  195. Format : UTF-8
  196. Codec ID : S_TEXT/UTF8
  197. Codec ID/Info : UTF-8 Plain Text
  198. Duration : 55 min 59 s
  199. Bit rate : 22 b/s
  200. Count of elements : 250
  201. Stream size : 9.09 KiB (0%)
  202. Language : Indonesian
  203. Default : No
  204. Forced : No

  205. Text #14
  206. ID : 16
  207. Format : UTF-8
  208. Codec ID : S_TEXT/UTF8
  209. Codec ID/Info : UTF-8 Plain Text
  210. Duration : 55 min 59 s
  211. Bit rate : 22 b/s
  212. Count of elements : 249
  213. Stream size : 9.11 KiB (0%)
  214. Language : Italian
  215. Default : No
  216. Forced : No

  217. Text #15
  218. ID : 17
  219. Format : UTF-8
  220. Codec ID : S_TEXT/UTF8
  221. Codec ID/Info : UTF-8 Plain Text
  222. Duration : 55 min 59 s
  223. Bit rate : 24 b/s
  224. Count of elements : 266
  225. Stream size : 9.87 KiB (0%)
  226. Language : Korean
  227. Default : No
  228. Forced : No

  229. Text #16
  230. ID : 18
  231. Format : UTF-8
  232. Codec ID : S_TEXT/UTF8
  233. Codec ID/Info : UTF-8 Plain Text
  234. Duration : 55 min 59 s
  235. Bit rate : 21 b/s
  236. Count of elements : 248
  237. Stream size : 8.87 KiB (0%)
  238. Language : Malay
  239. Default : No
  240. Forced : No

  241. Text #17
  242. ID : 19
  243. Format : UTF-8
  244. Codec ID : S_TEXT/UTF8
  245. Codec ID/Info : UTF-8 Plain Text
  246. Duration : 55 min 59 s
  247. Bit rate : 21 b/s
  248. Count of elements : 249
  249. Stream size : 8.75 KiB (0%)
  250. Language : Norwegian Bokmal
  251. Default : No
  252. Forced : No

  253. Text #18
  254. ID : 20
  255. Format : UTF-8
  256. Codec ID : S_TEXT/UTF8
  257. Codec ID/Info : UTF-8 Plain Text
  258. Duration : 55 min 59 s
  259. Bit rate : 21 b/s
  260. Count of elements : 249
  261. Stream size : 8.97 KiB (0%)
  262. Language : Dutch
  263. Default : No
  264. Forced : No

  265. Text #19
  266. ID : 21
  267. Format : UTF-8
  268. Codec ID : S_TEXT/UTF8
  269. Codec ID/Info : UTF-8 Plain Text
  270. Duration : 55 min 59 s
  271. Bit rate : 20 b/s
  272. Count of elements : 247
  273. Stream size : 8.49 KiB (0%)
  274. Language : Polish
  275. Default : No
  276. Forced : No

  277. Text #20
  278. ID : 22
  279. Format : UTF-8
  280. Codec ID : S_TEXT/UTF8
  281. Codec ID/Info : UTF-8 Plain Text
  282. Duration : 55 min 59 s
  283. Bit rate : 21 b/s
  284. Count of elements : 248
  285. Stream size : 8.83 KiB (0%)
  286. Language : Portuguese
  287. Default : No
  288. Forced : No

  289. Text #21
  290. ID : 23
  291. Format : UTF-8
  292. Codec ID : S_TEXT/UTF8
  293. Codec ID/Info : UTF-8 Plain Text
  294. Duration : 55 min 59 s
  295. Bit rate : 21 b/s
  296. Count of elements : 248
  297. Stream size : 8.86 KiB (0%)
  298. Language : Portuguese
  299. Default : No
  300. Forced : No
复制代码


蕾哈娜内衣秀4k Savage.X.Fenty.Show.Vol.2.2020.2160p.AMZN.WEB-DL.x265.10bit.HDR10Plus.DDP5.1.纪录片下载

蕾哈娜内衣秀4k Savage.X.Fenty.Show.Vol.2.2020.2160p.AMZN.WEB-DL.x265.10bit.HDR10Plus.DDP5.1【5.97 GB】
[Hao4k]蕾哈娜内衣秀4k Savage.X.Fenty.Show.Vol.2.2020.2160p.AMZN.WEB-DL.x265.10bi.torrent (30.54 KB, 售价: 2 K币)
分享到:  QQ好友和群QQ好友和群
回复

使用道具 举报

全部回复69

2
ltx5808 发表于 2021-6-1 10:58:23

ltx5808 2

2021-6-1 10:58:23

感谢分享!!!地板?
回复 支持 反对

使用道具 举报

3
ltx5808 发表于 2021-6-1 10:58:56

ltx5808 3

2021-6-1 10:58:56

沙发!!!!!!!!!!!!
回复 支持 反对

使用道具 举报

4
jiangyuewei 发表于 2021-6-1 11:02:19

jiangyuewei 4

2021-6-1 11:02:19

好 黑
回复 支持 反对

使用道具 举报

5
star5773 发表于 2021-6-1 11:37:23

star5773 5

2021-6-1 11:37:23

这是去幼儿园的车队?
回复 支持 反对

使用道具 举报

6
d370216774 发表于 2021-6-1 11:44:06

d370216774 6

2021-6-1 11:44:06

开车了 快上车 !
回复 支持 反对

使用道具 举报

7
xiaozx 发表于 2021-6-1 11:44:15

xiaozx 7

2021-6-1 11:44:15

一直也不明白这黑姐姐哪里好看。。之前演的千星之城还成,但是超级战舰,那简直了。。

不过歌唱的还是不错的
回复 支持 反对

使用道具 举报

8
troyyoung 发表于 2021-6-1 11:53:12

troyyoung 8

2021-6-1 11:53:12

感谢楼主分享
回复 支持 反对

使用道具 举报

9
mo814876560 发表于 2021-6-1 12:12:55

mo814876560 9

2021-6-1 12:12:55

楼主辛苦了,谢谢分享。
回复 支持 反对

使用道具 举报

10
啊叫啥 发表于 2021-6-1 13:28:02

啊叫啥 10

2021-6-1 13:28:02


楼主辛苦了,谢谢分享。
回复 支持 反对

使用道具 举报

11
yuuuu1942 发表于 2021-6-1 13:44:28

yuuuu1942 11

2021-6-1 13:44:28

楼主辛苦了,谢谢分享。
回复 支持 反对

使用道具 举报

12
dyczw 发表于 2021-6-1 14:04:14

dyczw 12

2021-6-1 14:04:14

感谢分享,辛苦了
回复 支持 反对

使用道具 举报

13
ggang 发表于 2021-6-1 14:10:28

ggang 13

2021-6-1 14:10:28

多谢楼主的分享;
回复 支持 反对

使用道具 举报

14
cdyangjun2019 发表于 2021-6-1 14:46:22

cdyangjun2019 14

2021-6-1 14:46:22

谢谢楼主分享,下来看看
回复 支持 反对

使用道具 举报

15
despot 发表于 2021-6-1 15:12:43

despot 15

2021-6-1 15:12:43

好奇看了一下,原来是个广告片,黑人胖妞黑GAY各种扭,美国艺术欣赏不来。居然有豆瓣7分,传送过去看了一眼评论,惊了!
回复 支持 反对

使用道具 举报

16
adamshoo 发表于 2021-6-1 15:23:01

adamshoo 16

2021-6-1 15:23:01

看过前一集,貌似还不错滴                           
回复 支持 反对

使用道具 举报

17
r31325 发表于 2021-6-1 15:29:56

r31325 17

2021-6-1 15:29:56

难道全是黑人的吗?那就下错了
回复 支持 反对

使用道具 举报

18
eonwill 发表于 2021-6-1 15:47:15

eonwill 18

2021-6-1 15:47:15

楼主辛苦了 ,没想到好多地方没有的这里有,支持
回复 支持 反对

使用道具 举报

   发表回复

您需要登录后才可以回帖 登录 | 立即注册

返回列表 本版积分规则

  • 在线客服

  • 返回顶部