微博 微信

Hao4K影音

电影频道
电影封面:
片  名: 电锯惊魂9:漩涡4K
电影分类: 恐怖 惊悚 悬疑 
国  家: 美国 
年  代: 2021年
分 辨 率: 4K(3840x2160)
电影格式: MKV|REMUX 
画质标准: HDR10 
音质编码: Dolby Digital Plus Audio 
电影声道: 5.1声道 
帧数/FPS: 23.976 帧
电影语言: 英文原版 
资源大小: 9.94 GB
导  演: 达伦·林恩·鲍斯曼
豆瓣评分: 6.2 分
中文字幕: /thread-57963-1-1.html
剧情简介: 老鸟警探(塞缪尔·杰克逊 Samuel L. Jackson 饰)带领警探(克里斯·洛克 Chris Rock 饰)调查惨绝人寰的连环杀警案,“拼图杀人魔”重出江湖的传言,再度勾起所有人心中的恐惧。这次新的游戏规则,似乎直冲警察而来。每个命案现场留下的“死亡漩涡”,将把他们卷进难以抽身的血腥深渊之中……
  《电锯惊魂》第九部由第8部的两位编剧皮特·古德芬格和乔什·斯托伯格撰写剧本。执导了《电锯惊魂234》的达伦·林恩·鲍斯曼此番回归执导。
死亡漩涡:夺魂锯新游戏(台) / 漩涡:恐惧斗室新游戏(港) / 电锯惊魂9 / 新电锯惊魂 / 《电锯惊魂》重启版 / 电锯惊魂9:螺旋 / Spiral / SAW: The Organ Donor / The Organ Donor/电锯惊魂9:漩涡4K.Spiral.From.the.Book.of.Saw.2021.2160p.AMZN.WEB-DL.x265.10bit.HDR10Plus.DDP5.1-4k电影信息
  1. Video
  2. ID : 1
  3. Format : HEVC
  4. Format/Info : High Efficiency Video Coding
  5. Format profile : Main 10@L5@Main
  6. HDR format : SMPTE ST 2094 App 4, Version 1, HDR10+ Profile B compatible
  7. Codec ID : V_MPEGH/ISO/HEVC
  8. Duration : 1 h 33 min
  9. Bit rate : 14.6 Mb/s
  10. Width : 3 840 pixels
  11. Height : 1 600 pixels
  12. Display aspect ratio : 2.40:1
  13. Frame rate mode : Constant
  14. Frame rate : 23.976 (24000/1001) FPS
  15. Color space : YUV
  16. Chroma subsampling : 4:2:0
  17. Bit depth : 10 bits
  18. Bits/(Pixel*Frame) : 0.099
  19. Stream size : 9.52 GiB (96%)
  20. Default : Yes
  21. Forced : No
  22. Color range : Limited
  23. Color primaries : BT.2020
  24. Transfer characteristics : PQ
  25. Matrix coefficients : BT.2020 non-constant
  26. Mastering display color primaries : Display P3
  27. Mastering display luminance : min: 0.0050 cd/m2, max: 1000 cd/m2
  28. Maximum Content Light Level : 907 cd/m2
  29. Maximum Frame-Average Light Level : 185 cd/m2

  30. Audio
  31. ID : 2
  32. Format : E-AC-3
  33. Format/Info : Enhanced AC-3
  34. Commercial name : Dolby Digital Plus
  35. Codec ID : A_EAC3
  36. Duration : 1 h 33 min
  37. Bit rate mode : Constant
  38. Bit rate : 640 kb/s
  39. Channel(s) : 6 channels
  40. Channel layout : L R C LFE Ls Rs
  41. Sampling rate : 48.0 kHz
  42. Frame rate : 31.250 FPS (1536 SPF)
  43. Compression mode : Lossy
  44. Stream size : 426 MiB (4%)
  45. Title : English
  46. Language : English
  47. Service kind : Complete Main
  48. Default : No
  49. Forced : No

  50. Text #1
  51. ID : 3
  52. Format : UTF-8
  53. Codec ID : S_TEXT/UTF8
  54. Codec ID/Info : UTF-8 Plain Text
  55. Duration : 1 h 26 min
  56. Bit rate : 67 b/s
  57. Count of elements : 1440
  58. Stream size : 42.6 KiB (0%)
  59. Title : English [SDH]
  60. Language : English
  61. Default : No
  62. Forced : No

  63. Text #2
  64. ID : 4
  65. Format : UTF-8
  66. Codec ID : S_TEXT/UTF8
  67. Codec ID/Info : UTF-8 Plain Text
  68. Duration : 1 h 25 min
  69. Bit rate : 61 b/s
  70. Count of elements : 1271
  71. Stream size : 38.3 KiB (0%)
  72. Title : English
  73. Language : English
  74. Default : No
  75. Forced : No
复制代码

死亡漩涡:夺魂锯新游戏(台) / 漩涡:恐惧斗室新游戏(港) / 电锯惊魂9 / 新电锯惊魂 / 《电锯惊魂》重启版 / 电锯惊魂9:螺旋 / Spiral / SAW: The Organ Donor / The Organ Donor/电锯惊魂9:漩涡4K.Spiral.From.the.Book.of.Saw.2021.2160p.AMZN.WEB-DL.x265.10bit.HDR10Plus.DDP5.1-4K电影下载
电锯惊魂9:漩涡4K.Spiral.From.the.Book.of.Saw.2021.2160p.AMZN.WEB-DL.x265.10bit.HDR10Plus.DDP5.1【4K HDR 9.94 GB】
[Hao4K]电锯惊魂9:漩涡4K.Spiral.From.the.Book.of.Saw.2021.2160p.AMZN.WEB-DL.x265.torrent (50.36 KB, 售价: 2 K币)
回复

使用道具 举报

   发表回复

您需要登录后才可以回帖 登录 | 立即注册

返回列表 本版积分规则

关闭

站内通知上一条 /1 下一条

  • 在线客服

  • 返回顶部