微博 微信

Hao4K影音

[美剧] 路西法 第五季4k Lucifer.S05.COMPLETE.2160p.美剧下载

2021-6-14 15:33:14 18230 6 |只看大图 回帖奖励 |倒序浏览 |阅读模式

大红色 帖主

2021-6-1 16:48:34

电视剧频道
电视剧封面:
电视剧名: 路西法 第五季4k
年  代:
国  家: 美国
类  别: 犯罪 剧情 奇幻 
语  言: 英语
字  幕: 英文原版
上映日期: 2020-08-21
文件格式: mkv    
视频效果: 4K(3840x2160)    
资源大小: 152.81 GB
片  长: 45 分钟
导  演: 南森·霍普 / 卡伦·卡薇欧拉 / 格雷格·毕曼 / 舍温·希拉蒂
剧情简介: 故事讲述无聊且郁郁寡欢的地狱之主路西法放弃了他的宝座和王国,搬到了华美绚丽、熠熠生辉的洛杉矶,与洛杉矶警局并肩作战,共同惩治犯罪。
魔鬼神探(港/台)/路西法 第五季4k Lucifer.S05.COMPLETE.2160p.NF.WEBRip.DDP5.1.x265.4k美剧信息
  1. Video
  2. ID : 1
  3. Format : HEVC
  4. Format/Info : High Efficiency Video Coding
  5. Format profile : Main 10@L5.1@High
  6. Codec ID : V_MPEGH/ISO/HEVC
  7. Duration : 59 min 47 s
  8. Bit rate : 25.1 Mb/s
  9. Width : 3 840 pixels
  10. Height : 2 160 pixels
  11. Display aspect ratio : 16:9
  12. Frame rate mode : Constant
  13. Frame rate : 23.976 (24000/1001) FPS
  14. Color space : YUV
  15. Chroma subsampling : 4:2:0
  16. Bit depth : 10 bits
  17. Bits/(Pixel*Frame) : 0.126
  18. Stream size : 10.5 GiB (97%)
  19. Writing library : x265 3.0_Au+4-dcbec33bfb0f:[Windows][GCC 8.2.1][64 bit] 10bit
  20. Encoding settings : cpuid=1111039 / frame-threads=4 / numa-pools=28 / wpp / no-pmode / no-pme / no-psnr / no-ssim / log-level=2 / input-csp=1 / input-res=3840x2160 / interlace=0 / total-frames=86002 / level-idc=51 / high-tier=1 / uhd-bd=0 / ref=5 / no-allow-non-conformance / repeat-headers / annexb / aud / hrd / info / hash=0 / no-temporal-layers / open-gop / min-keyint=23 / keyint=250 / gop-lookahead=0 / bframes=8 / b-adapt=2 / b-pyramid / bframe-bias=0 / rc-lookahead=40 / lookahead-slices=8 / scenecut=40 / radl=0 / no-splice / no-intra-refresh / ctu=64 / min-cu-size=8 / no-rect / no-amp / max-tu-size=32 / tu-inter-depth=4 / tu-intra-depth=4 / limit-tu=4 / rdoq-level=0 / dynamic-rd=0.00 / no-ssim-rd / signhide / no-tskip / nr-intra=0 / nr-inter=0 / no-constrained-intra / strong-intra-smoothing / max-merge=4 / limit-refs=3 / no-limit-modes / me=1 / subme=5 / merange=57 / temporal-mvp / weightp / weightb / no-analyze-src-pics / deblock=-3:-3 / no-sao / no-sao-non-deblock / rd=4 / no-early-skip / rskip / no-fast-intra / no-tskip-fast / no-cu-lossless / b-intra / no-splitrd-skip / rdpenalty=0 / psy-rd=2.00 / psy-rdoq=0.00 / no-rd-refine / no-lossless / cbqpoffs=0 / crqpoffs=0 / rc=crf / crf=19.0 / qcomp=0.60 / qpstep=4 / stats-write=0 / stats-read=0 / vbv-maxrate=160000 / vbv-bufsize=160000 / vbv-init=0.9 / crf-max=0.0 / crf-min=0.0 / ipratio=1.30 / pbratio=1.20 / aq-mode=1 / aq-strength=0.85 / no-cutree / zone-count=0 / no-strict-cbr / qg-size=32 / no-rc-grain / qpmax=69 / qpmin=0 / no-const-vbv / sar=1 / overscan=0 / videoformat=5 / range=0 / colorprim=1 / transfer=1 / colormatrix=1 / chromaloc=0 / display-window=0 / max-cll=0,0 / min-luma=0 / max-luma=1023 / log2-max-poc-lsb=8 / vui-timing-info / vui-hrd-info / slices=1 / no-opt-qp-pps / no-opt-ref-list-length-pps / no-multi-pass-opt-rps / scenecut-bias=0.05 / no-opt-cu-delta-qp / no-aq-motion / no-hdr / no-hdr-opt / no-dhdr10-opt / no-idr-recovery-sei / analysis-reuse-level=5 / scale-factor=0 / refine-intra=0 / refine-inter=0 / refine-mv=0 / refine-ctu-distortion=0 / no-limit-sao / ctu-info=0 / no-lowpass-dct / refine-analysis-type=0 / copy-pic=1 / max-ausize-factor=1.0 / no-dynamic-refine / no-single-sei / no-hevc-aq / qp-adaptation-range=1.00
  21. Default : Yes
  22. Forced : No
  23. Color range : Limited
  24. Color primaries : BT.709
  25. Transfer characteristics : BT.709
  26. Matrix coefficients : BT.709

  27. Audio
  28. ID : 2
  29. Format : E-AC-3
  30. Format/Info : Enhanced AC-3
  31. Commercial name : Dolby Digital Plus
  32. Codec ID : A_EAC3
  33. Duration : 59 min 47 s
  34. Bit rate mode : Constant
  35. Bit rate : 640 kb/s
  36. Channel(s) : 6 channels
  37. Channel layout : L R C LFE Ls Rs
  38. Sampling rate : 48.0 kHz
  39. Frame rate : 31.250 FPS (1536 SPF)
  40. Compression mode : Lossy
  41. Stream size : 274 MiB (2%)
  42. Language : English
  43. Service kind : Complete Main
  44. Default : Yes
  45. Forced : No

  46. Text #1
  47. ID : 3
  48. Format : UTF-8
  49. Codec ID : S_TEXT/UTF8
  50. Codec ID/Info : UTF-8 Plain Text
  51. Duration : 57 min 41 s
  52. Bit rate : 87 b/s
  53. Count of elements : 994
  54. Stream size : 37.0 KiB (0%)
  55. Language : English
  56. Default : No
  57. Forced : No

  58. Text #2
  59. ID : 4
  60. Format : UTF-8
  61. Codec ID : S_TEXT/UTF8
  62. Codec ID/Info : UTF-8 Plain Text
  63. Duration : 58 min 27 s
  64. Bit rate : 91 b/s
  65. Count of elements : 1054
  66. Stream size : 39.3 KiB (0%)
  67. Title : SDH
  68. Language : English
  69. Default : No
  70. Forced : No

  71. Text #3
  72. ID : 5
  73. Format : UTF-8
  74. Codec ID : S_TEXT/UTF8
  75. Codec ID/Info : UTF-8 Plain Text
  76. Duration : 59 min 23 s
  77. Bit rate : 126 b/s
  78. Count of elements : 1018
  79. Stream size : 54.9 KiB (0%)
  80. Language : Arabic
  81. Default : No
  82. Forced : No

  83. Text #4
  84. ID : 6
  85. Format : UTF-8
  86. Codec ID : S_TEXT/UTF8
  87. Codec ID/Info : UTF-8 Plain Text
  88. Duration : 58 min 35 s
  89. Bit rate : 77 b/s
  90. Count of elements : 959
  91. Stream size : 33.1 KiB (0%)
  92. Language : Czech
  93. Default : No
  94. Forced : No

  95. Text #5
  96. ID : 7
  97. Format : UTF-8
  98. Codec ID : S_TEXT/UTF8
  99. Codec ID/Info : UTF-8 Plain Text
  100. Duration : 58 min 37 s
  101. Bit rate : 69 b/s
  102. Count of elements : 914
  103. Stream size : 29.8 KiB (0%)
  104. Language : Danish
  105. Default : No
  106. Forced : No

  107. Text #6
  108. ID : 8
  109. Format : UTF-8
  110. Codec ID : S_TEXT/UTF8
  111. Codec ID/Info : UTF-8 Plain Text
  112. Duration : 59 min 24 s
  113. Bit rate : 117 b/s
  114. Count of elements : 937
  115. Stream size : 51.0 KiB (0%)
  116. Language : Greek
  117. Default : No
  118. Forced : No

  119. Text #7
  120. ID : 9
  121. Format : UTF-8
  122. Codec ID : S_TEXT/UTF8
  123. Codec ID/Info : UTF-8 Plain Text
  124. Duration : 58 min 37 s
  125. Bit rate : 72 b/s
  126. Count of elements : 1000
  127. Stream size : 31.0 KiB (0%)
  128. Title : Spanish
  129. Language : Spanish
  130. Default : No
  131. Forced : No

  132. Text #8
  133. ID : 10
  134. Format : UTF-8
  135. Codec ID : S_TEXT/UTF8
  136. Codec ID/Info : UTF-8 Plain Text
  137. Duration : 58 min 37 s
  138. Bit rate : 70 b/s
  139. Count of elements : 952
  140. Stream size : 30.4 KiB (0%)
  141. Title : European
  142. Language : Spanish
  143. Default : No
  144. Forced : No

  145. Text #9
  146. ID : 11
  147. Format : UTF-8
  148. Codec ID : S_TEXT/UTF8
  149. Codec ID/Info : UTF-8 Plain Text
  150. Duration : 59 min 23 s
  151. Bit rate : 66 b/s
  152. Count of elements : 849
  153. Stream size : 28.9 KiB (0%)
  154. Language : Finnish
  155. Default : No
  156. Forced : No

  157. Text #10
  158. ID : 12
  159. Format : UTF-8
  160. Codec ID : S_TEXT/UTF8
  161. Codec ID/Info : UTF-8 Plain Text
  162. Duration : 58 min 37 s
  163. Bit rate : 68 b/s
  164. Count of elements : 951
  165. Stream size : 29.4 KiB (0%)
  166. Language : French
  167. Default : No
  168. Forced : No

  169. Text #11
  170. ID : 13
  171. Format : UTF-8
  172. Codec ID : S_TEXT/UTF8
  173. Codec ID/Info : UTF-8 Plain Text
  174. Duration : 57 min 50 s
  175. Bit rate : 112 b/s
  176. Count of elements : 1023
  177. Stream size : 47.7 KiB (0%)
  178. Language : Hebrew
  179. Default : No
  180. Forced : No

  181. Text #12
  182. ID : 14
  183. Format : UTF-8
  184. Codec ID : S_TEXT/UTF8
  185. Codec ID/Info : UTF-8 Plain Text
  186. Duration : 59 min 25 s
  187. Bit rate : 67 b/s
  188. Count of elements : 991
  189. Stream size : 29.5 KiB (0%)
  190. Language : Hungarian
  191. Default : No
  192. Forced : No

  193. Text #13
  194. ID : 15
  195. Format : UTF-8
  196. Codec ID : S_TEXT/UTF8
  197. Codec ID/Info : UTF-8 Plain Text
  198. Duration : 59 min 24 s
  199. Bit rate : 77 b/s
  200. Count of elements : 923
  201. Stream size : 33.6 KiB (0%)
  202. Language : Indonesian
  203. Default : No
  204. Forced : No

  205. Text #14
  206. ID : 16
  207. Format : UTF-8
  208. Codec ID : S_TEXT/UTF8
  209. Codec ID/Info : UTF-8 Plain Text
  210. Duration : 58 min 37 s
  211. Bit rate : 70 b/s
  212. Count of elements : 961
  213. Stream size : 30.3 KiB (0%)
  214. Language : Italian
  215. Default : No
  216. Forced : No
复制代码


魔鬼神探(港/台)/路西法 第五季4k Lucifer.S05.COMPLETE.2160p.NF.WEBRip.DDP5.1.x265.4k美剧下载

路西法 第五季4k Lucifer.S05.COMPLETE.2160p.NF.WEBRip.DDP5.1.x265【152.81】
[Hao4k]路西法 第五季4k Lucifer.S05.COMPLETE.2160p.NF.WEBRip.DDP5.1.x265-NTb.torrent (384.21 KB)
回复

使用道具 举报

全部回复6

ZJG8237372 发表于 2021-6-1 21:38:28

ZJG8237372 2

2021-6-1 21:38:28

字幕啊!找不到
回复 支持 反对

使用道具 举报

wybinhua 发表于 2021-6-1 22:47:37

wybinhua 3

2021-6-1 22:47:37


谢谢楼主
回复 支持 反对

使用道具 举报

daishuxuan 发表于 2021-6-2 19:25:22

daishuxuan 4

2021-6-2 19:25:22

这个是第五季前8集吗请问
回复 支持 反对

使用道具 举报

h2325124 发表于 2021-6-2 20:36:32

h2325124 5

2021-6-2 20:36:32

下载。牛哇!~哈哈
回复 支持 反对

使用道具 举报

胖熊维尼 发表于 2021-6-3 20:28:51

胖熊维尼 6

2021-6-3 20:28:51

这个有没有前面几季呢?
回复 支持 反对

使用道具 举报

ciwawaci 发表于 2021-6-14 15:33:14

ciwawaci 7

2021-6-14 15:33:14


内嵌字幕,自带
回复 支持 反对

使用道具 举报

   发表回复

您需要登录后才可以回帖 登录 | 立即注册

返回列表 本版积分规则

:
白银玩家
:
未填写

主题

帖子

积分1167

  • 在线客服

  • 返回顶部