微博 微信

Hao4K影音

电影频道
电影封面:
片  名: 弗莱骗局4k
电影分类: 纪录片 
国  家: 美国 
年  代: 2019年
分 辨 率: 4K(3840x2160)
电影格式: MKV|REMUX 
画质标准: 其他 
音质编码: Dolby Digital Plus Audio 
电影声道: 其他 
帧数/FPS: 23.976 帧
电影语言: 英文原版 
资源大小: 8.60 GB
导  演: Jenner Furst / Julia Willoughby Nason
豆瓣评分: 7.5 分
中文字幕: -
剧情简介: FYRE FRAUD is a true-crime comedy exploring a failed music festival turned internet meme at the nexus of social media influence, late-stage capitalism, and morality in the post-truth era.
  The Fyre Festival was the defining scam of the millennial generation, at the nexus of social media influence, late-stage capitalism, and morality in the post-truth era. Marketing for the 2017 music event went viral with the help of rapper Ja Rule, instagram stars, and models but turned epic fail after stranding thousands in the Bahamas. Featuring an exclusive interview with Billy McFarland, the convicted con-man behind the festival; FYRE FRAUD is a true-crime comedy bolstered by a cast of whistleblowers, victims, and insiders going beyond the spectacle to uncover the power of FOMO and an ecosystem of enablers, driven by profit and a lack of accountability in the digital age.
弗莱骗局4k  Fyre.Fraud.2019.2160p.WEB.h265-4k电影纪录片信息
  1. Video
  2. ID : 1
  3. Format : HEVC
  4. Format/Info : High Efficiency Video Coding
  5. Format profile : Main 10@L5.1@Main
  6. Codec ID : V_MPEGH/ISO/HEVC
  7. Duration : 1 h 36 min
  8. Bit rate : 12.6 Mb/s
  9. Width : 3 840 pixels
  10. Height : 2 160 pixels
  11. Display aspect ratio : 16:9
  12. Frame rate mode : Constant
  13. Frame rate : 23.976 (24000/1001) FPS
  14. Color space : YUV
  15. Chroma subsampling : 4:2:0
  16. Bit depth : 10 bits
  17. Bits/(Pixel*Frame) : 0.063
  18. Stream size : 8.43 GiB (98%)
  19. Default : Yes
  20. Forced : No

  21. Audio
  22. ID : 2
  23. Format : E-AC-3
  24. Format/Info : Enhanced AC-3
  25. Commercial name : Dolby Digital Plus
  26. Codec ID : A_EAC3
  27. Duration : 1 h 36 min
  28. Bit rate mode : Constant
  29. Bit rate : 256 kb/s
  30. Channel(s) : 6 channels
  31. Channel layout : L R C LFE Ls Rs
  32. Sampling rate : 48.0 kHz
  33. Frame rate : 31.250 FPS (1536 SPF)
  34. Compression mode : Lossy
  35. Stream size : 176 MiB (2%)
  36. Language : English
  37. Service kind : Complete Main
  38. Default : Yes
  39. Forced : No

  40. Text #1
  41. ID : 3
  42. Format : UTF-8
  43. Codec ID : S_TEXT/UTF8
  44. Codec ID/Info : UTF-8 Plain Text
  45. Duration : 1 h 33 min
  46. Bit rate : 116 b/s
  47. Count of elements : 2135
  48. Stream size : 80.4 KiB (0%)
  49. Title : English
  50. Language : English
  51. Default : No
  52. Forced : No

  53. Text #2
  54. ID : 4
  55. Format : UTF-8
  56. Codec ID : S_TEXT/UTF8
  57. Codec ID/Info : UTF-8 Plain Text
  58. Duration : 1 h 34 min
  59. Bit rate : 115 b/s
  60. Count of elements : 2183
  61. Stream size : 79.8 KiB (0%)
  62. Title : Spanish
  63. Language : Spanish
  64. Default : No
  65. Forced : No
复制代码

弗莱骗局4k  Fyre.Fraud.2019.2160p.WEB.h265-4K电影纪录片下载

弗莱骗局4k  Fyre.Fraud.2019.2160p.WEB.h265【8.60GB】
[Hao4k]弗莱骗局4k Fyre.Fraud.2019.2160p.WEB.h265-OPUS.torrent (43.68 KB)
回复

使用道具 举报

全部回复17

kltan9988 发表于 2021-6-2 00:01:43

kltan9988 2

2021-6-2 00:01:43

謝謝分享
回复 支持 反对

使用道具 举报

panbell 发表于 2021-6-2 09:04:07

panbell 3

2021-6-2 09:04:07

谢谢楼主分享
回复 支持 反对

使用道具 举报

ender666 发表于 2021-6-2 13:49:25

ender666 4

2021-6-2 13:49:25

谢谢分享
回复 支持 反对

使用道具 举报

syncmaster 发表于 2021-6-2 15:13:13

syncmaster 5

2021-6-2 15:13:13

谢谢分享
回复 支持 反对

使用道具 举报

ARFEI 发表于 2021-6-2 18:55:06

ARFEI 6

2021-6-2 18:55:06

多谢楼主的分享。
回复 支持 反对

使用道具 举报

testAA 发表于 2021-6-2 21:05:07

testAA 7

2021-6-2 21:05:07

对名字很感兴趣,下载来看看谢谢楼主分享
回复 支持 反对

使用道具 举报

世爵39 发表于 2021-6-3 08:36:09

世爵39 8

2021-6-3 08:36:09

这是什么内容记录片
回复 支持 反对

使用道具 举报

kltan9988 发表于 2021-6-4 00:01:21

kltan9988 9

2021-6-4 00:01:21

谢谢楼主分享
回复 支持 反对

使用道具 举报

银色砖脑壳儿 发表于 2021-6-4 15:45:19

银色砖脑壳儿 10

2021-6-4 15:45:19


谢谢楼主分享
回复 支持 反对

使用道具 举报

mazeg 发表于 2021-6-5 09:21:36

mazeg 11

2021-6-5 09:21:36

纪录片别错过。
回复 支持 反对

使用道具 举报

concord3303 发表于 2021-6-5 09:57:41

concord3303 12

2021-6-5 09:57:41

谢谢分享啊
回复 支持 反对

使用道具 举报

mazeg 发表于 2021-6-5 17:01:15

mazeg 13

2021-6-5 17:01:15


纪录片别错过。
回复 支持 反对

使用道具 举报

pwf 发表于 2021-6-6 20:47:42

pwf 14

2021-6-6 20:47:42

谢谢楼主分享
回复 支持 反对

使用道具 举报

mccliqiang 发表于 2021-6-6 23:03:26

mccliqiang 15

2021-6-6 23:03:26

好资源,谢谢分享
回复 支持 反对

使用道具 举报

56789trewq 发表于 7 天前

56789trewq 16

7 天前

感謝樓主分享好電影,希望以後還能繼續看到更多的資源!
回复 支持 反对

使用道具 举报

qida123 发表于 6 天前

qida123 17

6 天前

看起来剧情不错,下一个看看
回复 支持 反对

使用道具 举报

mo814876560 发表于 5 天前

mo814876560 18

5 天前

喜欢纪录片,感谢楼主的分享!
回复 支持 反对

使用道具 举报

   发表回复

您需要登录后才可以回帖 登录 | 立即注册

返回列表 本版积分规则

关闭

站内通知上一条 /1 下一条

  • 在线客服

  • 返回顶部