微博 微信

Hao4K影音

电影频道
电影封面:
片  名: 玛格丽特·阿特伍德:笔耕不辍是为力4k
电影分类: 纪录片 
国  家: 加拿大 
年  代: 2019年
分 辨 率: 4K(3840x2160)
电影格式: MKV|REMUX 
画质标准: 其他 
音质编码: Dolby Digital Plus Audio 
电影声道: 其他 
帧数/FPS: 23.976 帧
电影语言: 英文原版 
资源大小: 8.71 GB
导  演: Nancy Lang / Peter Raymont
豆瓣评分: 8.1 分
中文字幕: -
剧情简介: Canadian author and poet Margaret Atwood discusses her life and work.
玛格丽特·阿特伍德:书写的力量/玛格丽特·阿特伍德:笔耕不辍是为力4k Margaret.Atwood.A.Word.After.a.Word.After.a.Word.is.Power.2019.2160p.WEB.h265-4k电影纪录片信息
  1. Video
  2. ID : 1
  3. Format : HEVC
  4. Format/Info : High Efficiency Video Coding
  5. Format profile : Main 10@L5.1@Main
  6. Codec ID : V_MPEGH/ISO/HEVC
  7. Duration : 1 h 32 min
  8. Bit rate : 13.2 Mb/s
  9. Width : 3 840 pixels
  10. Height : 2 160 pixels
  11. Display aspect ratio : 16:9
  12. Frame rate mode : Constant
  13. Frame rate : 23.976 (24000/1001) FPS
  14. Color space : YUV
  15. Chroma subsampling : 4:2:0
  16. Bit depth : 10 bits
  17. Bits/(Pixel*Frame) : 0.066
  18. Stream size : 8.54 GiB (98%)
  19. Default : Yes
  20. Forced : No

  21. Audio
  22. ID : 2
  23. Format : E-AC-3
  24. Format/Info : Enhanced AC-3
  25. Commercial name : Dolby Digital Plus
  26. Codec ID : A_EAC3
  27. Duration : 1 h 32 min
  28. Bit rate mode : Constant
  29. Bit rate : 256 kb/s
  30. Channel(s) : 6 channels
  31. Channel layout : L R C LFE Ls Rs
  32. Sampling rate : 48.0 kHz
  33. Frame rate : 31.250 FPS (1536 SPF)
  34. Compression mode : Lossy
  35. Stream size : 170 MiB (2%)
  36. Language : English
  37. Service kind : Complete Main
  38. Default : Yes
  39. Forced : No

  40. Text #1
  41. ID : 3
  42. Format : UTF-8
  43. Codec ID : S_TEXT/UTF8
  44. Codec ID/Info : UTF-8 Plain Text
  45. Duration : 1 h 32 min
  46. Bit rate : 116 b/s
  47. Count of elements : 1747
  48. Stream size : 78.5 KiB (0%)
  49. Title : English
  50. Language : English
  51. Default : No
  52. Forced : No

  53. Text #2
  54. ID : 4
  55. Format : UTF-8
  56. Codec ID : S_TEXT/UTF8
  57. Codec ID/Info : UTF-8 Plain Text
  58. Duration : 1 h 32 min
  59. Bit rate : 125 b/s
  60. Count of elements : 1857
  61. Stream size : 84.7 KiB (0%)
  62. Title : Spanish
  63. Language : Spanish
  64. Default : No
  65. Forced : No
复制代码


玛格丽特·阿特伍德:书写的力量/玛格丽特·阿特伍德:笔耕不辍是为力4k Margaret.Atwood.A.Word.After.a.Word.After.a.Word.is.Power.2019.2160p.WEB.h265-4K电影纪录片下载

玛格丽特·阿特伍德:笔耕不辍是为力4k Margaret.Atwood.A.Word.After.a.Word.After.a.Word.is.Power.2019.2160p.WEB.h265【8.71GB】
[Hao4k]玛格丽特·阿特伍德:笔耕不辍是为力4k Margaret.Atwood.A.Word.After.a.Word..torrent (44.36 KB, 售价: 2 K币)
回复

使用道具 举报

全部回复13

shyhua 发表于 2021-6-2 05:06:09

shyhua 2

2021-6-2 05:06:09

纪录片居然得到8.1的高分不简单呀!
回复 支持 反对

使用道具 举报

panbell 发表于 2021-6-2 09:03:37

panbell 3

2021-6-2 09:03:37

谢谢楼主分享
回复 支持 反对

使用道具 举报

mo814876560 发表于 2021-6-2 09:25:24

mo814876560 4

2021-6-2 09:25:24

感谢楼主的分享。
回复 支持 反对

使用道具 举报

bbgrnnji 发表于 2021-6-2 17:00:41

bbgrnnji 5

2021-6-2 17:00:41

纪录片不少啊
回复 支持 反对

使用道具 举报

money17 发表于 2021-6-3 08:11:33

money17 6

2021-6-3 08:11:33

這個是纪录片?
回复 支持 反对

使用道具 举报

patriotiii 发表于 2021-6-4 13:46:20

patriotiii 7

2021-6-4 13:46:20

谢谢分享
回复 支持 反对

使用道具 举报

fzb768 发表于 2021-6-4 14:42:39

fzb768 8

2021-6-4 14:42:39


谢谢分享
回复 支持 反对

使用道具 举报

mazeg 发表于 2021-6-5 09:20:24

mazeg 9

2021-6-5 09:20:24

纪录片别错过。
回复 支持 反对

使用道具 举报

mo814876560 发表于 2021-6-9 08:26:15

mo814876560 10

2021-6-9 08:26:15

先收藏,谢谢楼主的分享!
回复 支持 反对

使用道具 举报

56789trewq 发表于 2021-6-11 11:32:00

56789trewq 11

2021-6-11 11:32:00

感謝樓主分享好電影,希望以後還能繼續看到更多的資源!
回复 支持 反对

使用道具 举报

lianxi68 发表于 2021-6-13 17:31:52

lianxi68 12

2021-6-13 17:31:52

谢谢分享
回复 支持 反对

使用道具 举报

咖喱蛋白 发表于 7 天前 Hao4K手机版

咖喱蛋白 13

7 天前

太喜欢了,谢谢楼主分
回复 支持 反对

使用道具 举报

mzwlmh 发表于 7 天前

mzwlmh 14

7 天前

谢谢楼主的分享
回复 支持 反对

使用道具 举报

   发表回复

您需要登录后才可以回帖 登录 | 立即注册

返回列表 本版积分规则

  • 在线客服

  • 返回顶部