微博 微信

Hao4K影音

电影频道
电影封面:
片  名: 神奇乔纳森的纪录片4k
电影分类: 纪录片 
国  家: 美国 
年  代: 2019年
分 辨 率: 4K(3840x2160)
电影格式: MKV|REMUX 
画质标准: 其他 
音质编码: Dolby Digital Plus Audio 
电影声道: 其他 
帧数/FPS: 23.976 帧
电影语言: 英文原版 
资源大小: 9.80 GB
导  演: 本杰明·伯曼
豆瓣评分: 7.8 分
中文字幕: -
剧情简介:  紀錄片導演班博曼原本想拍一部關於80年代紅極一時的魔術師「犀利喬納森」(The Amazing Johnathan) 的紀錄片。但當被拍者反客為主,故佈迷陣把導演耍得暈頭轉向,這個亂局可以怎樣收科?事緣最初喬納森被詳嗷忌闲呐K病,只剩下一年命,被迫退休;但三年後,喬納森死唔去,決定東山再起。導演班博曼於是決定追蹤拍攝他的復出巡迴表演,豈料喬納森突然玩嘢,將班博曼殺個措手不及,令拍攝工作遇上許多未知數和障礙。但班博曼將局面扭轉,順勢進一步探討何謂真相,何謂假象。看來導演才是真正的魔術師,化腐朽為神奇把差點爛尾的紀錄片起死回生!
扭計魔術師(港)/神奇乔纳森的纪录片4k The.Amazing.Johnathan.Documentary.2019.2160p.WEB.h265-4k电影纪录片信息
  1. Video
  2. ID : 1
  3. Format : HEVC
  4. Format/Info : High Efficiency Video Coding
  5. Format profile : Main 10@L5.1@Main
  6. Codec ID : V_MPEGH/ISO/HEVC
  7. Duration : 1 h 30 min
  8. Bit rate : 15.2 Mb/s
  9. Width : 3 840 pixels
  10. Height : 2 160 pixels
  11. Display aspect ratio : 16:9
  12. Frame rate mode : Constant
  13. Frame rate : 23.976 (24000/1001) FPS
  14. Color space : YUV
  15. Chroma subsampling : 4:2:0
  16. Bit depth : 10 bits
  17. Bits/(Pixel*Frame) : 0.077
  18. Stream size : 9.64 GiB (98%)
  19. Default : Yes
  20. Forced : No

  21. Audio
  22. ID : 2
  23. Format : E-AC-3
  24. Format/Info : Enhanced AC-3
  25. Commercial name : Dolby Digital Plus
  26. Codec ID : A_EAC3
  27. Duration : 1 h 30 min
  28. Bit rate mode : Constant
  29. Bit rate : 256 kb/s
  30. Channel(s) : 6 channels
  31. Channel layout : L R C LFE Ls Rs
  32. Sampling rate : 48.0 kHz
  33. Frame rate : 31.250 FPS (1536 SPF)
  34. Compression mode : Lossy
  35. Stream size : 166 MiB (2%)
  36. Language : English
  37. Service kind : Complete Main
  38. Default : Yes
  39. Forced : No

  40. Text #1
  41. ID : 3
  42. Format : UTF-8
  43. Codec ID : S_TEXT/UTF8
  44. Codec ID/Info : UTF-8 Plain Text
  45. Duration : 1 h 30 min
  46. Bit rate : 89 b/s
  47. Count of elements : 1497
  48. Stream size : 59.4 KiB (0%)
  49. Title : English
  50. Language : English
  51. Default : No
  52. Forced : No

  53. Text #2
  54. ID : 4
  55. Format : UTF-8
  56. Codec ID : S_TEXT/UTF8
  57. Codec ID/Info : UTF-8 Plain Text
  58. Duration : 1 h 29 min
  59. Bit rate : 108 b/s
  60. Count of elements : 1724
  61. Stream size : 71.2 KiB (0%)
  62. Title : Spanish
  63. Language : Spanish
  64. Default : No
  65. Forced : No
复制代码

扭計魔術師(港)/神奇乔纳森的纪录片4k The.Amazing.Johnathan.Documentary.2019.2160p.WEB.h265-4K电影纪录片下载

神奇乔纳森的纪录片4k The.Amazing.Johnathan.Documentary.2019.2160p.WEB.h265【9.80 GB】
[Hao4k]神奇乔纳森的纪录片4k The.Amazing.Johnathan.Documentary.2019.2160p.WEB.h26.torrent (49.74 KB, 售价: 2 K币)
回复

使用道具 举报

全部回复7

yuin01 发表于 2021-6-1 21:06:53

yuin01 2

2021-6-1 21:06:53

感谢分享,下来看看!
回复 支持 反对

使用道具 举报

dqxa 发表于 2021-6-2 13:30:13

dqxa 3

2021-6-2 13:30:13

非常不错的资源。
回复 支持 反对

使用道具 举报

ARFEI 发表于 2021-6-2 18:56:08

ARFEI 4

2021-6-2 18:56:08

这个魔术师居然玩了导演,果然有功力
回复 支持 反对

使用道具 举报

mo814876560 发表于 2021-6-3 08:19:20

mo814876560 5

2021-6-3 08:19:20

谢谢楼主,辛苦了!
回复 支持 反对

使用道具 举报

13320245913 发表于 2021-6-3 17:39:34

13320245913 6

2021-6-3 17:39:34

记录片还是好看
回复 支持 反对

使用道具 举报

ywf6168 发表于 2021-6-4 10:56:07 Hao4K手机版

ywf6168 7

2021-6-4 10:56:07

感谢分享
回复 支持 反对

使用道具 举报

mazeg 发表于 2021-6-5 09:19:12

mazeg 8

2021-6-5 09:19:12

纪录片别错过。
回复 支持 反对

使用道具 举报

   发表回复

您需要登录后才可以回帖 登录 | 立即注册

返回列表 本版积分规则

  • 在线客服

  • 返回顶部