微博 微信

Hao4K影音

电影频道
电影封面:
片  名: 迷你肩膀:再造芭比4k
电影分类: 纪录片 
国  家: 美国 
年  代: 2018年
分 辨 率: 4K(3840x2160)
电影格式: MKV|REMUX 
画质标准: 其他 
音质编码: Dolby Digital Plus Audio 
电影声道: 其他 
帧数/FPS: 23.976 帧
电影语言: 英文原版 
资源大小: 8.09 GB
导  演: 安德里亚·布劳格隆德·内温斯
豆瓣评分:
中文字幕: -
剧情简介:   In her 59 years, Barbie has become a fashion icon, a lightning rod and a target for feminists. Tiny Shoulders: Rethinking Barbie, featuring newly discovered footage and unprecedented access to the inner workings of a toy giant during Barbie\'s biggest reinvention, surveys 60 years of women in popular culture through the lens of this 11.5 inch, Zelig-like plastic icon. Featuring interviews with Gloria Steinem, Roxane Gay, Peggy Orenstein, Mattel insiders and cultural historians, the documentary follows the progression and regression in women\'s recent fight for equality by weaving six decades of shockingly sexist media with fly-on-the-wall insight into Barbie\'s invention and reinvention. Tiny Shoulders is directed, written and produced by Andrea Nevins. Cristan Crocker also serves as producer. Azin Samari edited.
Barbie the Documentary/迷你肩膀:再造芭比4k Tiny.Shoulders.Rethinking.Barbie.2018.2160p.WEB.h265-4k电影纪录片信息
  1. Video
  2. ID : 1
  3. Format : HEVC
  4. Format/Info : High Efficiency Video Coding
  5. Format profile : Main 10@L5.1@Main
  6. Codec ID : V_MPEGH/ISO/HEVC
  7. Duration : 1 h 32 min
  8. Bit rate : 12.2 Mb/s
  9. Width : 3 840 pixels
  10. Height : 2 160 pixels
  11. Display aspect ratio : 16:9
  12. Frame rate mode : Constant
  13. Frame rate : 23.976 (24000/1001) FPS
  14. Color space : YUV
  15. Chroma subsampling : 4:2:0
  16. Bit depth : 10 bits
  17. Bits/(Pixel*Frame) : 0.062
  18. Stream size : 7.92 GiB (98%)
  19. Default : Yes
  20. Forced : No

  21. Audio
  22. ID : 2
  23. Format : E-AC-3
  24. Format/Info : Enhanced AC-3
  25. Commercial name : Dolby Digital Plus
  26. Codec ID : A_EAC3
  27. Duration : 1 h 32 min
  28. Bit rate mode : Constant
  29. Bit rate : 256 kb/s
  30. Channel(s) : 6 channels
  31. Channel layout : L R C LFE Ls Rs
  32. Sampling rate : 48.0 kHz
  33. Frame rate : 31.250 FPS (1536 SPF)
  34. Compression mode : Lossy
  35. Stream size : 170 MiB (2%)
  36. Language : English
  37. Service kind : Complete Main
  38. Default : Yes
  39. Forced : No

  40. Text #1
  41. ID : 3
  42. Format : UTF-8
  43. Codec ID : S_TEXT/UTF8
  44. Codec ID/Info : UTF-8 Plain Text
  45. Duration : 1 h 32 min
  46. Bit rate : 111 b/s
  47. Count of elements : 1853
  48. Stream size : 75.9 KiB (0%)
  49. Title : English
  50. Language : English
  51. Default : No
  52. Forced : No

  53. Text #2
  54. ID : 4
  55. Format : UTF-8
  56. Codec ID : S_TEXT/UTF8
  57. Codec ID/Info : UTF-8 Plain Text
  58. Duration : 1 h 32 min
  59. Bit rate : 120 b/s
  60. Count of elements : 2000
  61. Stream size : 81.6 KiB (0%)
  62. Title : Spanish
  63. Language : Spanish
  64. Default : No
  65. Forced : No
复制代码


Barbie the Documentary/迷你肩膀:再造芭比4k Tiny.Shoulders.Rethinking.Barbie.2018.2160p.WEB.h265-4K电影纪录片下载

迷你肩膀:再造芭比4k Tiny.Shoulders.Rethinking.Barbie.2018.2160p.WEB.h265【8.09GB】
[Hao4k]迷你肩膀:再造芭比4k Tiny.Shoulders.Rethinking.Barbie.2018.2160p.WEB.h265.torrent (41.17 KB)
回复

使用道具 举报

全部回复16

wybinhua 发表于 2021-6-1 22:49:21

wybinhua 2

2021-6-1 22:49:21


谢谢楼主
回复 支持 反对

使用道具 举报

tuerye 发表于 2021-6-2 03:13:03

tuerye 3

2021-6-2 03:13:03

感谢楼主的芭比!
回复 支持 反对

使用道具 举报

zhengren 发表于 2021-6-2 08:59:18

zhengren 4

2021-6-2 08:59:18

谢谢楼主分享
回复 支持 反对

使用道具 举报

panbell 发表于 2021-6-2 09:03:05

panbell 5

2021-6-2 09:03:05

谢谢楼主分享
回复 支持 反对

使用道具 举报

jmllljgs 发表于 2021-6-2 09:07:13

jmllljgs 6

2021-6-2 09:07:13

求字幕
回复 支持 反对

使用道具 举报

yangly 发表于 2021-6-2 09:50:53

yangly 7

2021-6-2 09:50:53

谢谢分享,顶你
回复 支持 反对

使用道具 举报

月光麦田 发表于 2021-6-2 10:15:46

月光麦田 8

2021-6-2 10:15:46

谢谢分享
回复 支持 反对

使用道具 举报

cdyangjun2019 发表于 2021-6-2 10:40:48

cdyangjun2019 9

2021-6-2 10:40:48

纪录片也挺好看,谢谢分享
回复 支持 反对

使用道具 举报

ender666 发表于 2021-6-2 13:51:03

ender666 10

2021-6-2 13:51:03

感谢分享
回复 支持 反对

使用道具 举报

bbgrnnji 发表于 2021-6-2 16:59:53

bbgrnnji 11

2021-6-2 16:59:53

谢谢楼主发片
回复 支持 反对

使用道具 举报

r31325 发表于 2021-6-2 20:19:31

r31325 12

2021-6-2 20:19:31

每个女孩都有一个barbie
回复 支持 反对

使用道具 举报

xxw8888 发表于 2021-6-2 22:48:06 Hao4K手机版

xxw8888 13

2021-6-2 22:48:06

谢谢分享
回复 支持 反对

使用道具 举报

yoyoyiyoyo 发表于 2021-6-3 09:25:33

yoyoyiyoyo 14

2021-6-3 09:25:33

谢谢分享,孩子最喜欢看芭比了
回复 支持 反对

使用道具 举报

em9900b 发表于 2021-6-3 23:24:50

em9900b 15

2021-6-3 23:24:50

字幕不好找啊
回复 支持 反对

使用道具 举报

bai4829715 发表于 2021-6-4 08:50:12

bai4829715 16

2021-6-4 08:50:12


谢谢分享,孩子最喜欢看芭比了
回复 支持 反对

使用道具 举报

mo814876560 发表于 2021-6-6 08:20:14

mo814876560 17

2021-6-6 08:20:14

多谢谢楼主的分享了。
回复 支持 反对

使用道具 举报

   发表回复

您需要登录后才可以回帖 登录 | 立即注册

返回列表 本版积分规则

  • 在线客服

  • 返回顶部