微博 微信

Hao4K影音

电影频道
电影封面:
片  名: 天空中的露西4k
电影分类: 科幻 剧情 
国  家: 美国 
年  代: 2019年
分 辨 率: 4K(3840x2160)
电影格式: MKV|REMUX 
画质标准: 其他 
音质编码: Dolby Digital Plus Audio 
电影声道: 其他 
帧数/FPS: 23.976 帧
电影语言: 英文原版 
资源大小: 17.5 GB
导  演: 诺亚·霍利
豆瓣评分: 5.6 分
中文字幕: -
剧情简介: 影片讲述娜塔莉·波特曼饰演的女宇航员从太空中完成任务返回地球后,逐渐偏离原生活轨迹,现实感逐渐消失的故事。
露西上太空(台) / 淡蓝色圆点 / Pale Blue Dot/天空中的露西4k Lucy.In.The.Sky.2019.2160p.x265电影信息
  1. Video
  2. ID : 1
  3. Format : HEVC
  4. Format/Info : High Efficiency Video Coding
  5. Format profile : Main [email protected]@Main
  6. HDR format : SMPTE ST 2086, HDR10 compatible
  7. Codec ID : V_MPEGH/ISO/HEVC
  8. Duration : 2 h 5 min
  9. Bit rate : 17.5 Mb/s
  10. Width : 3 840 pixels
  11. Height : 2 160 pixels
  12. Display aspect ratio : 16:9
  13. Frame rate mode : Constant
  14. Frame rate : 23.976 (23976/1000) FPS
  15. Color space : YUV
  16. Chroma subsampling : 4:2:0
  17. Bit depth : 10 bits
  18. Bits/(Pixel*Frame) : 0.088
  19. Stream size : 15.3 GiB (87%)
  20. Title : 2160p
  21. Writing library : x265 3.0_RC+11-72188bd2f034:[Linux][GCC 4.9.2][64 bit] 10bit
  22. Language : English
  23. Default : Yes
  24. Forced : No
  25. Color range : Limited
  26. Color primaries : BT.2020
  27. Transfer characteristics : PQ
  28. Matrix coefficients : BT.2020 non-constant
  29. Mastering display color primaries : BT.2020
  30. Mastering display luminance : min: 0.0000 cd/m2, max: 1000 cd/m2
  31. Maximum Content Light Level : 376 cd/m2
  32. Maximum Frame-Average Light Level : 1069 cd/m2

  33. Audio #1
  34. ID : 2
  35. Format : E-AC-3
  36. Format/Info : Enhanced AC-3
  37. Commercial name : Dolby Digital Plus
  38. Codec ID : A_EAC3
  39. Duration : 2 h 4 min
  40. Bit rate mode : Constant
  41. Bit rate : 640 kb/s
  42. Channel(s) : 6 channels
  43. Channel layout : L R C LFE Ls Rs
  44. Sampling rate : 48.0 kHz
  45. Frame rate : 31.250 FPS (1536 SPF)
  46. Compression mode : Lossy
  47. Stream size : 572 MiB (3%)
  48. Title : E-AC3
  49. Language : Italian
  50. Service kind : Complete Main
  51. Default : Yes
  52. Forced : No

  53. Audio #2
  54. ID : 3
  55. Format : AC-3
  56. Format/Info : Audio Coding 3
  57. Commercial name : Dolby Digital
  58. Codec ID : A_AC3
  59. Duration : 2 h 4 min
  60. Bit rate mode : Constant
  61. Bit rate : 640 kb/s
  62. Channel(s) : 6 channels
  63. Channel layout : L R C LFE Ls Rs
  64. Sampling rate : 48.0 kHz
  65. Frame rate : 31.250 FPS (1536 SPF)
  66. Compression mode : Lossy
  67. Stream size : 572 MiB (3%)
  68. Title : AC3
  69. Language : Italian
  70. Service kind : Complete Main
  71. Default : No
  72. Forced : No

  73. Audio #3
  74. ID : 4
  75. Format : E-AC-3
  76. Format/Info : Enhanced AC-3
  77. Commercial name : Dolby Digital Plus
  78. Codec ID : A_EAC3
  79. Duration : 2 h 4 min
  80. Bit rate mode : Constant
  81. Bit rate : 640 kb/s
  82. Channel(s) : 6 channels
  83. Channel layout : L R C LFE Ls Rs
  84. Sampling rate : 48.0 kHz
  85. Frame rate : 31.250 FPS (1536 SPF)
  86. Compression mode : Lossy
  87. Stream size : 572 MiB (3%)
  88. Title : E-AC3
  89. Language : English
  90. Service kind : Complete Main
  91. Default : No
  92. Forced : No

  93. Audio #4
  94. ID : 5
  95. Format : AC-3
  96. Format/Info : Audio Coding 3
  97. Commercial name : Dolby Digital
  98. Codec ID : A_AC3
  99. Duration : 2 h 4 min
  100. Bit rate mode : Constant
  101. Bit rate : 640 kb/s
  102. Channel(s) : 6 channels
  103. Channel layout : L R C LFE Ls Rs
  104. Sampling rate : 48.0 kHz
  105. Frame rate : 31.250 FPS (1536 SPF)
  106. Compression mode : Lossy
  107. Stream size : 572 MiB (3%)
  108. Title : AC3
  109. Language : English
  110. Service kind : Complete Main
  111. Default : No
  112. Forced : No

  113. Text #1
  114. ID : 6
  115. Format : UTF-8
  116. Codec ID : S_TEXT/UTF8
  117. Codec ID/Info : UTF-8 Plain Text
  118. Duration : 1 h 59 min
  119. Bit rate : 1 b/s
  120. Count of elements : 45
  121. Stream size : 1.47 KiB (0%)
  122. Title : Forced
  123. Language : Italian
  124. Default : No
  125. Forced : Yes

  126. Text #2
  127. ID : 7
  128. Format : UTF-8
  129. Codec ID : S_TEXT/UTF8
  130. Codec ID/Info : UTF-8 Plain Text
  131. Duration : 2 h 4 min
  132. Bit rate : 40 b/s
  133. Count of elements : 1421
  134. Stream size : 37.3 KiB (0%)
  135. Title : Regular
  136. Language : Italian
  137. Default : No
  138. Forced : No

  139. Text #3
  140. ID : 8
  141. Format : UTF-8
  142. Codec ID : S_TEXT/UTF8
  143. Codec ID/Info : UTF-8 Plain Text
  144. Duration : 2 h 4 min
  145. Bit rate : 45 b/s
  146. Count of elements : 1389
  147. Stream size : 41.9 KiB (0%)
  148. Title : Non udenti
  149. Language : English
  150. Default : No
  151. Forced : No
复制代码

露西上太空(台) / 淡蓝色圆点 / Pale Blue Dot/天空中的露西4k Lucy.In.The.Sky.2019.2160p.x265电影下载

天空中的露西4k Lucy.In.The.Sky.2019.2160p..x265【17.5 GB】
天空中的露西4k.txt (95 Bytes)
回复

使用道具 举报

全部回复8

gasboy2 发表于 2021-6-2 12:53:11

gasboy2 2

2021-6-2 12:53:11

链接获取种子文件失败,只有我一个吗?谢谢分享,辛苦了。
回复 支持 反对

使用道具 举报

Marcoo 发表于 2021-6-3 10:34:30

Marcoo 3

2021-6-3 10:34:30

看见简介里有娜塔莉来下的. 分低不管了. 哈哈. 感谢lz分享..  
顺回楼上xd.. 能下啊. 用的迅雷.  虽然吸血雷无耻.但确实用着方便.
回复 支持 反对

使用道具 举报

cdyangjun2019 发表于 2021-6-3 15:17:53

cdyangjun2019 4

2021-6-3 15:17:53

应该不错的电影,谢谢楼主分享
回复 支持 反对

使用道具 举报

concord3303 发表于 2021-6-4 00:05:30

concord3303 5

2021-6-4 00:05:30


谢谢分享。下载看看
回复 支持 反对

使用道具 举报

bbgrnnji 发表于 2021-6-4 09:04:08

bbgrnnji 6

2021-6-4 09:04:08

谢谢楼主分享
回复 支持 反对

使用道具 举报

cyy5186 发表于 2021-6-5 15:51:03

cyy5186 7

2021-6-5 15:51:03

感谢楼主分享
回复 支持 反对

使用道具 举报

czh820106 发表于 2021-6-6 11:52:51

czh820106 8

2021-6-6 11:52:51


谢谢楼主分享
回复 支持 反对

使用道具 举报

Amigo168 发表于 2021-6-14 10:11:47

Amigo168 9

2021-6-14 10:11:47

片子很不错,感谢分享!
回复 支持 反对

使用道具 举报

   发表回复

您需要登录后才可以回帖 登录 | 立即注册

返回列表 本版积分规则

  • 在线客服

  • 返回顶部