微博 微信

Hao4K影音

[美剧] 诸神的黄昏 第二季4k Ragnarok.S02.NORWEGIAN.2160p.美剧下载

2021-6-9 15:16:12 33284 5 |只看大图 回帖奖励 |倒序浏览 |阅读模式

大红色 帖主

2021-6-2 17:59:48

电视剧频道
电视剧封面:
电视剧名: 诸神的黄昏 第二季4k
年  代: 2021  
国  家: 美国
类  别: 剧情 悬疑 奇幻 
语  言: 英语
字  幕: 英文原版
上映日期: 2021-05-27
文件格式: mkv    
视频效果: 4K(3840x2160)    
资源大小: 31.74 GB
片  长: 40~48 分钟
导  演: Simen Alsvik / 亚当·普里斯
剧情简介: 成长题材剧集《诸神的黄昏》以全新角度讲述挪威神话,带来新的惊喜。该剧集以虚构的小镇埃达为背景,该小镇位于挪威壮丽迷人的大自然中。故事围绕埃达的居民展开叙述,这些人可能并非他们自己口中的样子。我们将与他们一同经历一个急剧变化的世界:两极融化、冬日变暖、暴雨如注。一些人声称另一次“诸神的黄昏”即将到来。除非有人及时扭转乾坤…
21世纪诸神黄昏(港) / 诸神黄昏(台)/诸神的黄昏 第二季4k Ragnarok.S02.NORWEGIAN.2160p.NF.WEBRip.x265.10bit.HDR.DDP5.1美剧信息
  1. Video
  2. ID : 1
  3. Format : HEVC
  4. Format/Info : High Efficiency Video Coding
  5. Format profile : Main 10@L5.1@High
  6. HDR format : SMPTE ST 2086, HDR10 compatible
  7. Codec ID : V_MPEGH/ISO/HEVC
  8. Duration : 53 min 50 s
  9. Bit rate : 17.8 Mb/s
  10. Width : 3 840 pixels
  11. Height : 1 920 pixels
  12. Display aspect ratio : 2.000
  13. Frame rate mode : Constant
  14. Frame rate : 24.000 FPS
  15. Color space : YUV
  16. Chroma subsampling : 4:2:0 (Type 2)
  17. Bit depth : 10 bits
  18. Bits/(Pixel*Frame) : 0.100
  19. Stream size : 6.68 GiB (96%)
  20. Writing library : x265 3.5+9-bf91444e0:[Windows][GCC 10.0.0][64 bit] 10bit
  21. Default : Yes
  22. Forced : No
  23. Color range : Limited
  24. Color primaries : BT.2020
  25. Transfer characteristics : PQ
  26. Matrix coefficients : BT.2020 non-constant
  27. Mastering display color primaries : Display P3
  28. Mastering display luminance : min: 0.0001 cd/m2, max: 1000 cd/m2
  29. Maximum Content Light Level : 756 cd/m2
  30. Maximum Frame-Average Light Level : 185 cd/m2

  31. Audio
  32. ID : 2
  33. Format : E-AC-3
  34. Format/Info : Enhanced AC-3
  35. Commercial name : Dolby Digital Plus
  36. Codec ID : A_EAC3
  37. Duration : 54 min 53 s
  38. Bit rate mode : Constant
  39. Bit rate : 640 kb/s
  40. Channel(s) : 6 channels
  41. Channel layout : L R C LFE Ls Rs
  42. Sampling rate : 48.0 kHz
  43. Frame rate : 31.250 FPS (1536 SPF)
  44. Compression mode : Lossy
  45. Delay relative to video : 22 ms
  46. Stream size : 251 MiB (4%)
  47. Title : Norwegian
  48. Language : Norwegian
  49. Service kind : Complete Main
  50. Default : Yes
  51. Forced : No

  52. Text #1
  53. ID : 3
  54. Format : UTF-8
  55. Codec ID : S_TEXT/UTF8
  56. Codec ID/Info : UTF-8 Plain Text
  57. Duration : 53 min 41 s
  58. Bit rate : 44 b/s
  59. Count of elements : 486
  60. Stream size : 17.4 KiB (0%)
  61. Language : English
  62. Default : Yes
  63. Forced : No

  64. Text #2
  65. ID : 4
  66. Format : UTF-8
  67. Codec ID : S_TEXT/UTF8
  68. Codec ID/Info : UTF-8 Plain Text
  69. Duration : 48 min 5 s
  70. Bit rate : 0 b/s
  71. Count of elements : 10
  72. Stream size : 217 Bytes (0%)
  73. Title : Forced
  74. Language : Norwegian Bokmal
  75. Default : No
  76. Forced : Yes

  77. Text #3
  78. ID : 5
  79. Format : UTF-8
  80. Codec ID : S_TEXT/UTF8
  81. Codec ID/Info : UTF-8 Plain Text
  82. Duration : 51 min 33 s
  83. Bit rate : 75 b/s
  84. Count of elements : 634
  85. Stream size : 28.5 KiB (0%)
  86. Language : Norwegian Bokmal
  87. Default : No
  88. Forced : No

  89. Text #4
  90. ID : 6
  91. Format : UTF-8
  92. Codec ID : S_TEXT/UTF8
  93. Codec ID/Info : UTF-8 Plain Text
  94. Duration : 53 min 41 s
  95. Bit rate : 41 b/s
  96. Count of elements : 494
  97. Stream size : 16.2 KiB (0%)
  98. Title : Latin America
  99. Language : Spanish
  100. Default : No
  101. Forced : No

  102. Text #5
  103. ID : 7
  104. Format : UTF-8
  105. Codec ID : S_TEXT/UTF8
  106. Codec ID/Info : UTF-8 Plain Text
  107. Duration : 53 min 41 s
  108. Bit rate : 43 b/s
  109. Count of elements : 492
  110. Stream size : 17.0 KiB (0%)
  111. Language : Spanish
  112. Default : No
  113. Forced : No

  114. Text #6
  115. ID : 8
  116. Format : UTF-8
  117. Codec ID : S_TEXT/UTF8
  118. Codec ID/Info : UTF-8 Plain Text
  119. Duration : 53 min 41 s
  120. Bit rate : 40 b/s
  121. Count of elements : 492
  122. Stream size : 16.0 KiB (0%)
  123. Title : Brazilian
  124. Language : Portuguese
  125. Default : No
  126. Forced : No

  127. Text #7
  128. ID : 9
  129. Format : UTF-8
  130. Codec ID : S_TEXT/UTF8
  131. Codec ID/Info : UTF-8 Plain Text
  132. Duration : 53 min 41 s
  133. Bit rate : 40 b/s
  134. Count of elements : 486
  135. Stream size : 16.1 KiB (0%)
  136. Language : German
  137. Default : No
  138. Forced : No

  139. Text #8
  140. ID : 10
  141. Format : UTF-8
  142. Codec ID : S_TEXT/UTF8
  143. Codec ID/Info : UTF-8 Plain Text
  144. Duration : 53 min 41 s
  145. Bit rate : 40 b/s
  146. Count of elements : 486
  147. Stream size : 16.0 KiB (0%)
  148. Language : French
  149. Default : No
  150. Forced : No
复制代码


21世纪诸神黄昏(港) / 诸神黄昏(台)/诸神的黄昏 第二季4k Ragnarok.S02.NORWEGIAN.2160p.NF.WEBRip.x265.10bit.HDR.DDP5.1美剧下载


诸神的黄昏 第二季4k Ragnarok.S02.NORWEGIAN.2160p.NF.WEBRip.x265.10bit.HDR.DDP5.1【31.74 GB】
[Hao4k]诸神的黄昏 第二季4k Ragnarok.S02.NORWEGIAN.2160p.NF.WEBRip.x265.10bit.HDR.torrent (80.42 KB)
回复

使用道具 举报

全部回复5

掌中宝 发表于 2021-6-2 20:01:37

掌中宝 2

2021-6-2 20:01:37

想看 怎么才能有分啊
回复 支持 反对

使用道具 举报

a3459311 发表于 2021-6-2 21:06:52

a3459311 3

2021-6-2 21:06:52

很  你信吗?
回复 支持 反对

使用道具 举报

冥昭之初 发表于 2021-6-4 15:54:48

冥昭之初 4

2021-6-4 15:54:48

感谢楼主,已经可以看了
回复 支持 反对

使用道具 举报

530600691 发表于 2021-6-8 21:18:56

530600691 5

2021-6-8 21:18:56

没有字幕,
回复 支持 反对

使用道具 举报

冥昭之初 发表于 2021-6-9 15:16:12

冥昭之初 6

2021-6-9 15:16:12


自带字幕的呀
回复 支持 反对

使用道具 举报

   发表回复

您需要登录后才可以回帖 登录 | 立即注册

返回列表 本版积分规则

:
白银玩家
:
未填写

主题

帖子

积分1167

  • 在线客服

  • 返回顶部