微博 微信

Hao4K影音

电影频道
电影封面:
片  名: 偷拐抢骗4k
电影分类: 犯罪 喜剧 
国  家: 美国 英国 
年  代: 00年代
分 辨 率: 4K(3840x2160)
电影格式: MKV|REMUX 
画质标准: HDR10 
音质编码: Dolby Digital Plus Audio 
电影声道: 5.1声道 
帧数/FPS: 23.976 帧
电影语言: 英文原版 
资源大小: 14.09 GB
导  演: 盖·里奇
豆瓣评分: 8.5 分
中文字幕: /thread-58024-1-1.html
剧情简介:  土耳其(杰森•斯坦森饰)是一位黑市拳击的经理人,不过他遇到了麻烦,本该参加比赛的选手被吉普赛人米奇(布拉德•皮特饰)一拳击倒。土耳其不得不选择在黑帮老大布里克(阿兰•福特饰)与吉塞人之间周旋,来获得生机。与此同时,四指弗兰克(本尼西奥•德尔•托罗饰)携带一颗86克拉的钻石来到伦敦,这件赃物引起了各路匪徒的兴趣,其中包括军火商老布(拉德•舍博德兹加饰)、杀手“子弹牙齿”托尼(维尼•琼斯饰)与黑人小混混维尼(罗比•吉饰)。这些心怀不轨的罪犯各自盘算着自己的完美计划,不想造化弄人,惊人的巧合引出一连串幽默的冷笑话。所有的一切都在伦敦的夜晚交织,究竟谁能够从中解脱?就在盖•瑞奇导演的《偷拐抢骗》中揭晓。
边个够我姜(港) / 掠夺 / 贪得无厌 / 偷蒙拐骗/偷拐抢骗4k Snatch.2000.2160p.AMZN.WEB-DL.x265.10bit.HDR10Plus.DTS-HD.MA.5.1-4k电影信息
  1. Video
  2. ID : 1
  3. Format : HEVC
  4. Format/Info : High Efficiency Video Coding
  5. Format profile : Main 10@L5@Main
  6. HDR format : SMPTE ST 2094 App 4, Version 1, HDR10+ Profile B compatible
  7. Codec ID : V_MPEGH/ISO/HEVC
  8. Duration : 1 h 42 min
  9. Bit rate : 14.9 Mb/s
  10. Width : 3 840 pixels
  11. Height : 2 080 pixels
  12. Display aspect ratio : 1.85:1
  13. Frame rate mode : Constant
  14. Frame rate : 23.976 (24000/1001) FPS
  15. Color space : YUV
  16. Chroma subsampling : 4:2:0
  17. Bit depth : 10 bits
  18. Bits/(Pixel*Frame) : 0.078
  19. Stream size : 10.7 GiB (76%)
  20. Default : Yes
  21. Forced : No
  22. Color range : Limited
  23. Color primaries : BT.2020
  24. Transfer characteristics : PQ
  25. Matrix coefficients : BT.2020 non-constant
  26. Mastering display color primaries : Display P3
  27. Mastering display luminance : min: 0.0050 cd/m2, max: 4000 cd/m2
  28. Maximum Content Light Level : 1882 cd/m2
  29. Maximum Frame-Average Light Level : 132 cd/m2

  30. Audio #1
  31. ID : 2
  32. Format : DTS XLL
  33. Format/Info : Digital Theater Systems
  34. Commercial name : DTS-HD Master Audio
  35. Codec ID : A_DTS
  36. Duration : 1 h 42 min
  37. Bit rate mode : Variable
  38. Bit rate : 4 070 kb/s
  39. Channel(s) : 6 channels
  40. Channel layout : C L R Ls Rs LFE
  41. Sampling rate : 48.0 kHz
  42. Frame rate : 93.750 FPS (512 SPF)
  43. Bit depth : 24 bits
  44. Compression mode : Lossless
  45. Stream size : 2.92 GiB (21%)
  46. Title : DTS-HD MA 5.1
  47. Language : English
  48. Default : Yes
  49. Forced : No

  50. Audio #2
  51. ID : 3
  52. Format : E-AC-3
  53. Format/Info : Enhanced AC-3
  54. Commercial name : Dolby Digital Plus
  55. Codec ID : A_EAC3
  56. Duration : 1 h 42 min
  57. Bit rate mode : Constant
  58. Bit rate : 640 kb/s
  59. Channel(s) : 6 channels
  60. Channel layout : L R C LFE Ls Rs
  61. Sampling rate : 48.0 kHz
  62. Frame rate : 31.250 FPS (1536 SPF)
  63. Compression mode : Lossy
  64. Stream size : 470 MiB (3%)
  65. Title : DDP 5.1
  66. Language : English
  67. Service kind : Complete Main
  68. Default : No
  69. Forced : No

  70. Text
  71. ID : 4
  72. Format : UTF-8
  73. Codec ID : S_TEXT/UTF8
  74. Codec ID/Info : UTF-8 Plain Text
  75. Duration : 1 h 40 min
  76. Bit rate : 73 b/s
  77. Count of elements : 1765
  78. Stream size : 54.3 KiB (0%)
  79. Title : SDH
  80. Language : English
  81. Default : Yes
  82. Forced : No

  83. Menu
  84. 00:00:00.000 : Chapter 01
  85. 00:06:58.292 : Chapter 02
  86. 00:11:53.546 : Chapter 03
  87. 00:16:31.740 : Chapter 04
  88. 00:22:47.908 : Chapter 05
  89. 00:30:03.218 : Chapter 06
  90. 00:36:27.935 : Chapter 07
  91. 00:41:39.413 : Chapter 08
  92. 00:48:16.393 : Chapter 09
  93. 00:53:13.607 : Chapter 10
  94. 00:59:06.292 : Chapter 11
  95. 01:07:47.104 : Chapter 12
  96. 01:13:24.525 : Chapter 13
  97. 01:19:09.536 : Chapter 14
  98. 01:28:12.578 : Chapter 15
  99. 01:33:58.341 : Chapter 16
复制代码


边个够我姜(港) / 掠夺 / 贪得无厌 / 偷蒙拐骗/偷拐抢骗4k Snatch.2000.2160p.AMZN.WEB-DL.x265.10bit.HDR10Plus.DTS-HD.MA.5.1-4k电影下载
偷拐抢骗4k Snatch.2000.2160p.AMZN.WEB-DL.x265.10bit.HDR10Plus.DTS-HD.MA.5.1【14.09 GB】
[Hao4K]偷拐抢骗4k Snatch.2000.2160p.AMZN.WEB-DL.x265.10bit.HDR10Plus.DTS-HD.MA.5.torrent (71.09 KB, 售价: 2 K币)
回复

使用道具 举报

全部回复2

mo814876560 发表于 2021-6-3 08:16:27

mo814876560 2

2021-6-3 08:16:27

谢谢楼主,辛苦了!
回复 支持 反对

使用道具 举报

musiceroder 发表于 2021-6-3 09:31:24

musiceroder 3

2021-6-3 09:31:24

感谢分享耗资源。。。。。。
回复 支持 反对

使用道具 举报

   发表回复

您需要登录后才可以回帖 登录 | 立即注册

返回列表 本版积分规则

  • 在线客服

  • 返回顶部