微博 微信

Hao4K影音

[日韩剧] 浪客行4k Vagabond.S01.KOREAN.2160p.韩剧下载

昨天 22:11 35188 3 |只看大图 回帖奖励 |倒序浏览 |阅读模式

大红色 帖主

2021-6-3 11:56:31

电视剧频道
电视剧封面:
电视剧名: 浪客行4k
年  代: 2019  
国  家: 韩国
类  别: 动作 惊悚 爱情 
语  言: 其他
字  幕: 中文简体
上映日期: 2019-09-20
文件格式: mkv    
视频效果: 4K(3840x2160)    
资源大小: 112.19 GB
片  长: 60 分钟
导  演: 刘仁值
剧情简介: 《流浪者》讲述了李昇基饰演的特技演员车达建被卷入一场悲剧性的坠机事件,在这过程中,最终发现了一起全国性的腐败丑闻。裴秀智饰演的高海丽是一名阵亡海军陆战队士兵的长女,她梦想能够成为一名公务员,但为了赡养母亲和抚养弟弟妹妹,她决定担任国家情报局的秘密特工。
流浪者 / 浪行惊爆点(台) / 亡途觅雪(港) / Baegabondeu / Vagabond/浪客行4k Vagabond.S01.KOREAN.2160p.NF.WEB-DL.x265.10bit.SDR.DDP2.0韩剧信息
  1. Video
  2. ID : 1
  3. Format : HEVC
  4. Format/Info : High Efficiency Video Coding
  5. Format profile : Main 10@L5@Main
  6. Codec ID : V_MPEGH/ISO/HEVC
  7. Duration : 1 h 7 min
  8. Bit rate : 15.7 Mb/s
  9. Width : 3 840 pixels
  10. Height : 2 160 pixels
  11. Display aspect ratio : 16:9
  12. Frame rate mode : Constant
  13. Frame rate : 23.976 (24000/1001) FPS
  14. Color space : YUV
  15. Chroma subsampling : 4:2:0
  16. Bit depth : 10 bits
  17. Bits/(Pixel*Frame) : 0.079
  18. Stream size : 7.38 GiB (98%)
  19. Default : Yes
  20. Forced : No
  21. Color range : Limited
  22. Color primaries : BT.709
  23. Transfer characteristics : BT.709
  24. Matrix coefficients : BT.709

  25. Audio #1
  26. ID : 2
  27. Format : E-AC-3
  28. Format/Info : Enhanced AC-3
  29. Commercial name : Dolby Digital Plus
  30. Codec ID : A_EAC3
  31. Duration : 1 h 7 min
  32. Bit rate mode : Constant
  33. Bit rate : 128 kb/s
  34. Channel(s) : 2 channels
  35. Channel layout : L R
  36. Sampling rate : 48.0 kHz
  37. Frame rate : 31.250 FPS (1536 SPF)
  38. Compression mode : Lossy
  39. Stream size : 61.5 MiB (1%)
  40. Title : 한국어 [Original]
  41. Language : Korean
  42. Service kind : Complete Main
  43. Default : Yes
  44. Forced : No

  45. Audio #2
  46. ID : 3
  47. Format : E-AC-3
  48. Format/Info : Enhanced AC-3
  49. Commercial name : Dolby Digital Plus
  50. Codec ID : A_EAC3
  51. Duration : 1 h 7 min
  52. Bit rate mode : Constant
  53. Bit rate : 128 kb/s
  54. Channel(s) : 2 channels
  55. Channel layout : L R
  56. Sampling rate : 48.0 kHz
  57. Frame rate : 31.250 FPS (1536 SPF)
  58. Compression mode : Lossy
  59. Stream size : 61.5 MiB (1%)
  60. Title : 国语
  61. Language : Chinese
  62. Service kind : Complete Main
  63. Default : No
  64. Forced : No

  65. Text #1
  66. ID : 4
  67. Format : UTF-8
  68. Codec ID : S_TEXT/UTF8
  69. Codec ID/Info : UTF-8 Plain Text
  70. Duration : 1 h 4 min
  71. Bit rate : 1 b/s
  72. Count of elements : 23
  73. Stream size : 824 Bytes (0%)
  74. Title : 한국어 (Forced)
  75. Language : Korean
  76. Default : Yes
  77. Forced : Yes
复制代码


流浪者 / 浪行惊爆点(台) / 亡途觅雪(港) / Baegabondeu / Vagabond/浪客行4k Vagabond.S01.KOREAN.2160p.NF.WEB-DL.x265.10bit.SDR.DDP2.0韩剧下载

浪客行4k Vagabond.S01.KOREAN.2160p.NF.WEB-DL.x265.10bit.SDR.DDP2.0【112.19 GB】
[Hao4k]浪客行4k Vagabond.S01.KOREAN.2160p.NF.WEB-DL.x265.10bit.SDR.DDP2.0-AREY.torrent (282.27 KB)
回复

使用道具 举报

全部回复3

kenny2006 发表于 7 天前

kenny2006 2

7 天前

这个应该又第二季的,可就是没有一点消息?
回复 支持 反对

使用道具 举报

zjynaruto 发表于 昨天 01:10

zjynaruto 3

昨天 01:10

没有中字
回复 支持 反对

使用道具 举报

包不同 发表于 昨天 22:11

包不同 4

昨天 22:11

谢谢楼主。竟然是国语版的带中字。虽然我喜欢原声。
回复 支持 反对

使用道具 举报

   发表回复

您需要登录后才可以回帖 登录 | 立即注册

返回列表 本版积分规则

:
白银玩家
:
未填写

主题

帖子

积分1158

关闭

站内通知上一条 /1 下一条

  • 在线客服

  • 返回顶部