微博 微信

Hao4K影音

[美剧] 致命女人 第二季4k Why.Women.Kill.S02E01.HDR.2160p.美剧下载

3 天前 42230 19 |只看大图 回帖奖励 |倒序浏览 |阅读模式

大红色 帖主

2021-6-3 17:39:20

电视剧频道
电视剧封面:
电视剧名: 致命女人 第二季4k
年  代: 2021  
国  家: 美国
类  别: 犯罪 剧情 喜剧 
语  言: 英语
字  幕: 英文原版
上映日期: 2021-06-03
文件格式: mkv    
视频效果: 4K(3840x2160)    
资源大小: 5.03 GB
片  长: -
导  演: 大卫·沃伦 / 伊娃·朗格利亚 / 乔安娜·科恩斯 / 梅勒妮·梅隆
剧情简介: 新卡司新故事,第二季设定在1949年,将探索美丽的含义、人们呈现给世界的形象背后隐藏的真相、被社会忽视和轻看的影响,以及一个女人为了找到最终归属愿意付出什么。
  Allison Tolman饰演Alma,一个胆怯而笨拙的家庭主妇,她面对残酷的世界仍然保持着乐观。Alma十分渴望在当地的花园俱乐部有一席之地,盼着自己笨手笨脚的女儿早点嫁出去。但在她了解到自己丈夫的秘密爱好后,生活被彻底打乱了。
  Nick Frost饰演Alma深爱的丈夫Bertram。他是一名兽医,每天都在帮助生病受伤的动物摆脱痛苦。Bertram一向和蔼可亲、风趣幽默,但他有着一个秘密嗜好,比他友好天性所呈现的要更为黑暗。
女人为何杀人 / 女人杀人为哪般 / 女性杀人动机 / 美国女子屠鉴/ 致命女人 第二季4k Why.Women.Kill.S02E01.HDR.2160p.WEB.H265-4k美剧信息
  1. Video
  2. ID : 1
  3. Format : HEVC
  4. Format/Info : High Efficiency Video Coding
  5. Format profile : Main 10@L5@High
  6. HDR format : SMPTE ST 2094 App 4, Version 1, HDR10+ Profile B compatible
  7. Codec ID : V_MPEGH/ISO/HEVC
  8. Duration : 50 min 35 s
  9. Bit rate : 13.6 Mb/s
  10. Width : 3 840 pixels
  11. Height : 2 160 pixels
  12. Display aspect ratio : 16:9
  13. Frame rate mode : Constant
  14. Frame rate : 23.976 (24000/1001) FPS
  15. Color space : YUV
  16. Chroma subsampling : 4:2:0 (Type 2)
  17. Bit depth : 10 bits
  18. Bits/(Pixel*Frame) : 0.068
  19. Stream size : 4.79 GiB (95%)
  20. Default : Yes
  21. Forced : No
  22. Color range : Full
  23. Color primaries : BT.2020
  24. Transfer characteristics : PQ
  25. Matrix coefficients : BT.2020 non-constant
  26. Mastering display color primaries : Display P3
  27. Mastering display luminance : min: 0.0001 cd/m2, max: 1000 cd/m2

  28. Audio
  29. ID : 2
  30. Format : AC-3
  31. Format/Info : Audio Coding 3
  32. Commercial name : Dolby Digital
  33. Codec ID : A_AC3
  34. Duration : 50 min 35 s
  35. Bit rate mode : Constant
  36. Bit rate : 384 kb/s
  37. Channel(s) : 6 channels
  38. Channel layout : L R C LFE Ls Rs
  39. Sampling rate : 48.0 kHz
  40. Frame rate : 31.250 FPS (1536 SPF)
  41. Compression mode : Lossy
  42. Stream size : 139 MiB (3%)
  43. Language : English
  44. Service kind : Complete Main
  45. Default : Yes
  46. Forced : No

  47. Text
  48. ID : 3
  49. Format : UTF-8
  50. Codec ID : S_TEXT/UTF8
  51. Codec ID/Info : UTF-8 Plain Text
  52. Title : English
  53. Language : English
  54. Default : No
  55. Forced : No
复制代码


女人为何杀人 / 女人杀人为哪般 / 女性杀人动机 / 美国女子屠鉴/ 致命女人 第二季4k Why.Women.Kill.S02E01.HDR.2160p.WEB.H265-4k美剧下载

致命女人 第二季4k Why.Women.Kill.S02E01.HDR.2160p.WEB.H265【5.03GB】
[Hao4k]致命女人 第二季4k Why.Women.Kill.S02E01.HDR.2160p.WEB.H265-GGEZ.torrent (25.77 KB)
回复

使用道具 举报

全部回复19

victorzwc 发表于 2021-6-3 20:00:59

victorzwc 推荐

2021-6-3 20:00:59

这是全网最快的更新了,赞一个。谢谢。
回复 支持 反对

使用道具 举报

laopan 发表于 7 天前

laopan 推荐

7 天前

感谢分享!好人一生平安
回复 支持 反对

使用道具 举报

akakwc 发表于 2021-6-3 18:29:04

akakwc 4

2021-6-3 18:29:04

好人一生平安~
回复 支持 反对

使用道具 举报

kwbing 发表于 2021-6-3 19:28:51

kwbing 5

2021-6-3 19:28:51

谢谢分享了!!!!
回复 支持 反对

使用道具 举报

kkkkrato 发表于 2021-6-3 19:59:49

kkkkrato 6

2021-6-3 19:59:49

谢谢大佬!!
回复 支持 反对

使用道具 举报

yuanjiang1991 发表于 2021-6-4 09:26:04

yuanjiang1991 7

2021-6-4 09:26:04

有中文字幕就好了
回复 支持 反对

使用道具 举报

wangzhi691126 发表于 2021-6-4 10:23:47

wangzhi691126 8

2021-6-4 10:23:47


好人一生平安
回复 支持 反对

使用道具 举报

wangzhi691126 发表于 2021-6-4 10:24:02

wangzhi691126 9

2021-6-4 10:24:02


谢谢分享
回复 支持 反对

使用道具 举报

ShiningREX 发表于 2021-6-4 15:38:58

ShiningREX 10

2021-6-4 15:38:58

谢谢分享
回复 支持 反对

使用道具 举报

peach93 发表于 2021-6-4 18:50:33

peach93 11

2021-6-4 18:50:33

太感谢了,感谢分享
回复 支持 反对

使用道具 举报

Xuyang 发表于 2021-6-4 21:05:18

Xuyang 12

2021-6-4 21:05:18

来个给力的字幕!
回复 支持 反对

使用道具 举报

sunguanyu 发表于 2021-6-6 15:53:31

sunguanyu 13

2021-6-6 15:53:31

感谢分享
回复 支持 反对

使用道具 举报

真的好丶 发表于 7 天前

真的好丶 14

7 天前

感谢分享,好人一生平安
回复 支持 反对

使用道具 举报

a1256882840 发表于 7 天前

a1256882840 15

7 天前

为啥没有第一季啊
回复 支持 反对

使用道具 举报

CC142536 发表于 5 天前

CC142536 16

5 天前

为什么不继续更新了呢
回复 支持 反对

使用道具 举报

Clcr 发表于 4 天前

Clcr 17

4 天前

感谢楼主!
回复 支持 反对

使用道具 举报

lcg0616741 发表于 3 天前 Hao4K手机版

lcg0616741 18

3 天前

第三集什么时候跟新呀
回复 支持 反对

使用道具 举报

   发表回复

您需要登录后才可以回帖 登录 | 立即注册

返回列表 本版积分规则

:
白银玩家
:
未填写

主题

帖子

积分1149

  • 在线客服

  • 返回顶部