微博 微信

Hao4K影音

[日韩剧] 王国4k Kingdom.2019.S01.KOREAN.2160p.韩剧下载

昨天 03:40 44862 11 |只看大图 回帖奖励 |倒序浏览 |阅读模式

大红色 帖主

2021-6-4 16:47:25

电视剧频道
电视剧封面:
电视剧名: 王国 第一季4k
年  代: 2019  
国  家: 韩国
类  别: 动作 惊悚 剧情 
语  言: 英语
字  幕: 其他字幕
上映日期: 2019-01-25
文件格式: mkv    
视频效果: 4K(3840x2160)    
资源大小: 68.20 GB
片  长: 55 分钟
导  演: 金成勋
剧情简介: 在一个充斥着贪腐和饥荒的王国中,关于国王死亡的神秘传闻沸沸扬扬,同时一场奇怪的瘟疫传播开来,感染者可获得不死之身并嗜食人肉。成为阴谋牺牲品的世子开始踏上揭露邪恶阴谋,拯救子民的征程。
尸战朝鲜 / 李尸朝鲜(港/台) / Kingdom/王国 第一季4k Kingdom.2019.S02.KOREAN.2160p.NF.WEB-DL.x265.10bit.HDR.DDP5.1.Atmos 4k韩剧信息
  1. Video
  2. ID : 1
  3. Format : HEVC
  4. Format/Info : High Efficiency Video Coding
  5. Format profile : Main 10@L5@Main
  6. HDR format : SMPTE ST 2086, HDR10 compatible
  7. Codec ID : V_MPEGH/ISO/HEVC
  8. Duration : 51 min 41 s
  9. Bit rate : 15.2 Mb/s
  10. Width : 3 840 pixels
  11. Height : 2 160 pixels
  12. Display aspect ratio : 16:9
  13. Frame rate mode : Constant
  14. Frame rate : 23.976 (24000/1001) FPS
  15. Color space : YUV
  16. Chroma subsampling : 4:2:0 (Type 2)
  17. Bit depth : 10 bits
  18. Bits/(Pixel*Frame) : 0.077
  19. Stream size : 5.50 GiB (95%)
  20. Default : Yes
  21. Forced : No
  22. Color range : Limited
  23. Color primaries : BT.2020
  24. Transfer characteristics : PQ
  25. Matrix coefficients : BT.2020 non-constant
  26. Mastering display color primaries : Display P3
  27. Mastering display luminance : min: 0.0001 cd/m2, max: 1000 cd/m2
  28. Maximum Content Light Level : 1425 cd/m2
  29. Maximum Frame-Average Light Level : 462 cd/m2

  30. Audio
  31. ID : 2
  32. Format : E-AC-3 JOC
  33. Format/Info : Enhanced AC-3 with Joint Object Coding
  34. Commercial name : Dolby Digital Plus with Dolby Atmos
  35. Codec ID : A_EAC3
  36. Duration : 52 min 23 s
  37. Bit rate mode : Constant
  38. Bit rate : 768 kb/s
  39. Channel(s) : 6 channels
  40. Channel layout : L R C LFE Ls Rs
  41. Sampling rate : 48.0 kHz
  42. Frame rate : 31.250 FPS (1536 SPF)
  43. Compression mode : Lossy
  44. Stream size : 288 MiB (5%)
  45. Language : Korean
  46. Service kind : Complete Main
  47. Default : Yes
  48. Forced : No
  49. Complexity index : 16
  50. Number of dynamic objects : 15
  51. Bed channel count : 1 channel
  52. Bed channel configuration : LFE

  53. Text #1
  54. ID : 3
  55. Format : UTF-8
  56. Codec ID : S_TEXT/UTF8
  57. Codec ID/Info : UTF-8 Plain Text
  58. Duration : 51 min 27 s
  59. Bit rate : 52 b/s
  60. Count of elements : 398
  61. Stream size : 19.7 KiB (0%)
  62. Title : Arabic
  63. Language : Arabic
  64. Default : No
  65. Forced : No

  66. Text #2
  67. ID : 4
  68. Format : UTF-8
  69. Codec ID : S_TEXT/UTF8
  70. Codec ID/Info : UTF-8 Plain Text
  71. Duration : 51 min 27 s
  72. Bit rate : 28 b/s
  73. Count of elements : 395
  74. Stream size : 10.7 KiB (0%)
  75. Title : Brazilian Portuguese
  76. Language : Portuguese
  77. Default : No
  78. Forced : No

  79. Text #3
  80. ID : 5
  81. Format : UTF-8
  82. Codec ID : S_TEXT/UTF8
  83. Codec ID/Info : UTF-8 Plain Text
  84. Duration : 51 min 27 s
  85. Bit rate : 27 b/s
  86. Count of elements : 394
  87. Stream size : 10.3 KiB (0%)
  88. Title : Czech
  89. Language : Czech
  90. Default : No
  91. Forced : No

  92. Text #4
  93. ID : 6
  94. Format : UTF-8
  95. Codec ID : S_TEXT/UTF8
  96. Codec ID/Info : UTF-8 Plain Text
  97. Duration : 51 min 27 s
  98. Bit rate : 29 b/s
  99. Count of elements : 381
  100. Stream size : 11.0 KiB (0%)
  101. Title : Danish
  102. Language : Danish
  103. Default : No
  104. Forced : No

  105. Text #5
  106. ID : 7
  107. Format : UTF-8
  108. Codec ID : S_TEXT/UTF8
  109. Codec ID/Info : UTF-8 Plain Text
  110. Duration : 51 min 30 s
  111. Bit rate : 28 b/s
  112. Count of elements : 388
  113. Stream size : 10.9 KiB (0%)
  114. Title : Dutch
  115. Language : Dutch
  116. Default : No
  117. Forced : No

  118. Text #6
  119. ID : 8
  120. Format : UTF-8
  121. Codec ID : S_TEXT/UTF8
  122. Codec ID/Info : UTF-8 Plain Text
  123. Duration : 51 min 12 s
  124. Bit rate : 32 b/s
  125. Count of elements : 393
  126. Stream size : 12.0 KiB (0%)
  127. Title : English
  128. Language : English
  129. Default : No
  130. Forced : No

  131. Text #7
  132. ID : 9
  133. Format : UTF-8
  134. Codec ID : S_TEXT/UTF8
  135. Codec ID/Info : UTF-8 Plain Text
  136. Duration : 51 min 16 s
  137. Bit rate : 28 b/s
  138. Count of elements : 384
  139. Stream size : 10.6 KiB (0%)
  140. Title : European Spanish
  141. Language : Spanish
  142. Default : No
  143. Forced : No

  144. Text #8
  145. ID : 10
  146. Format : UTF-8
  147. Codec ID : S_TEXT/UTF8
  148. Codec ID/Info : UTF-8 Plain Text
  149. Duration : 51 min 16 s
  150. Bit rate : 29 b/s
  151. Count of elements : 384
  152. Stream size : 11.2 KiB (0%)
  153. Title : Finnish
  154. Language : Finnish
  155. Default : No
  156. Forced : No

  157. Text #9
  158. ID : 11
  159. Format : UTF-8
  160. Codec ID : S_TEXT/UTF8
  161. Codec ID/Info : UTF-8 Plain Text
  162. Duration : 51 min 27 s
  163. Bit rate : 30 b/s
  164. Count of elements : 391
  165. Stream size : 11.5 KiB (0%)
  166. Title : French
  167. Language : French
  168. Default : No
  169. Forced : No

  170. Text #10
  171. ID : 12
  172. Format : UTF-8
  173. Codec ID : S_TEXT/UTF8
  174. Codec ID/Info : UTF-8 Plain Text
  175. Duration : 51 min 27 s
  176. Bit rate : 29 b/s
  177. Count of elements : 381
  178. Stream size : 10.9 KiB (0%)
  179. Title : German
  180. Language : German
  181. Default : No
  182. Forced : No

  183. Text #11
  184. ID : 13
  185. Format : UTF-8
  186. Codec ID : S_TEXT/UTF8
  187. Codec ID/Info : UTF-8 Plain Text
  188. Duration : 51 min 27 s
  189. Bit rate : 49 b/s
  190. Count of elements : 384
  191. Stream size : 18.6 KiB (0%)
  192. Title : Greek
  193. Language : Greek
  194. Default : No
  195. Forced : No

  196. Text #12
  197. ID : 14
  198. Format : UTF-8
  199. Codec ID : S_TEXT/UTF8
  200. Codec ID/Info : UTF-8 Plain Text
  201. Duration : 51 min 27 s
  202. Bit rate : 47 b/s
  203. Count of elements : 399
  204. Stream size : 17.8 KiB (0%)
  205. Title : Hebrew
  206. Language : Hebrew
  207. Default : No
  208. Forced : No

  209. Text #13
  210. ID : 15
  211. Format : UTF-8
  212. Codec ID : S_TEXT/UTF8
  213. Codec ID/Info : UTF-8 Plain Text
  214. Duration : 51 min 28 s
  215. Bit rate : 28 b/s
  216. Count of elements : 392
  217. Stream size : 10.6 KiB (0%)
  218. Title : Hungarian
  219. Language : Hungarian
  220. Default : No
  221. Forced : No

  222. Text #14
  223. ID : 16
  224. Format : UTF-8
  225. Codec ID : S_TEXT/UTF8
  226. Codec ID/Info : UTF-8 Plain Text
  227. Duration : 51 min 27 s
  228. Bit rate : 29 b/s
  229. Count of elements : 399
  230. Stream size : 11.0 KiB (0%)
  231. Title : Indonesian
  232. Language : Indonesian
  233. Default : No
  234. Forced : No

  235. Text #15
  236. ID : 17
  237. Format : UTF-8
  238. Codec ID : S_TEXT/UTF8
  239. Codec ID/Info : UTF-8 Plain Text
  240. Duration : 51 min 27 s
  241. Bit rate : 30 b/s
  242. Count of elements : 397
  243. Stream size : 11.4 KiB (0%)
  244. Title : Italian
  245. Language : Italian
  246. Default : No
  247. Forced : No

  248. Text #16
  249. ID : 18
  250. Format : UTF-8
  251. Codec ID : S_TEXT/UTF8
  252. Codec ID/Info : UTF-8 Plain Text
  253. Duration : 51 min 29 s
  254. Bit rate : 27 b/s
  255. Count of elements : 337
  256. Stream size : 10.5 KiB (0%)
  257. Title : Japanese
  258. Language : Japanese
  259. Default : No
  260. Forced : No
复制代码


尸战朝鲜 / 李尸朝鲜(港/台) / Kingdom/王国 第一季4k Kingdom.2019.S02.KOREAN.2160p.NF.WEB-DL.x265.10bit.HDR.DDP5.1.Atmos韩剧下载

王国 第一季4k Kingdom.2019.S01.KOREAN.2160p.NF.WEBRip.DDP5.1.x264【68.20GB】
[Hao4k]王国 第一季4k Kingdom.2019.S01.KOREAN.2160p.NF.WEBRip.DDP5.1.x264-TrollUHD.torrent (171.56 KB)
回复

使用道具 举报

全部回复11

杜鸿霖 发表于 2021-6-5 23:56:10

杜鸿霖 推荐

2021-6-5 23:56:10

有没有第二季的啊
回复 支持 1 反对 0

使用道具 举报

zxc135151 发表于 2021-6-4 19:32:30

zxc135151 3

2021-6-4 19:32:30

谢谢 谢谢
回复 支持 反对

使用道具 举报

fuxingwenk 发表于 2021-6-4 19:44:10

fuxingwenk 4

2021-6-4 19:44:10


感谢分享好电影
回复 支持 反对

使用道具 举报

芝杜1201 发表于 2021-6-5 10:50:17

芝杜1201 5

2021-6-5 10:50:17

视频文件名怎么标记是第二季呢?
回复 支持 反对

使用道具 举报

294257934 发表于 2021-6-6 19:59:42

294257934 6

2021-6-6 19:59:42

是第一季还是第二季呢
回复 支持 反对

使用道具 举报

ggang 发表于 7 天前

ggang 7

7 天前

分享愉快 谢谢楼主
回复 支持 反对

使用道具 举报

jerryzhao1818 发表于 7 天前

jerryzhao1818 8

7 天前

感谢分享
回复 支持 反对

使用道具 举报

xin1218 发表于 7 天前

xin1218 9

7 天前

感谢分享好的电视剧!
回复 支持 反对

使用道具 举报

rowa2007 发表于 5 天前

rowa2007 10

5 天前

这部剧很好看
回复 支持 反对

使用道具 举报

sklkalay 发表于 3 天前

sklkalay 11

3 天前

字幕去哪里下载啊
回复 支持 反对

使用道具 举报

zgcaiwg 发表于 昨天 03:40

zgcaiwg 12

昨天 03:40

这部剧当年很火的。没有想到网站不仅仅提供欧美剧,也有韩剧。谢谢楼主!
回复 支持 反对

使用道具 举报

   发表回复

您需要登录后才可以回帖 登录 | 立即注册

返回列表 本版积分规则

:
白银玩家
:
未填写

主题

帖子

积分1149

  • 在线客服

  • 返回顶部