微博 微信

Hao4K影音

[美剧] 莉西的故事4k Liseys.Story.S01E01.HDR.2160p美剧下载

2021-6-12 20:02:59 23262 5 |只看大图 回帖奖励 |倒序浏览 |阅读模式

大红色 帖主

2021-6-4 21:00:10

电视剧频道
电视剧封面:
电视剧名: 莉西的故事4k
年  代: 2021  
国  家: 美国
类  别: 恐怖 惊悚 剧情 
语  言: -
字  幕: 中文简体
上映日期: 2021-06-04
文件格式: mkv    
视频效果: 4K(3840x2160)    
资源大小: 8.91 GB
片  长: -
导  演: 帕布罗·拉雷恩
剧情简介: 帕布罗·拉雷恩确认执导朱丽安·摩尔主演的Apple TV+限定剧《莉西的故事》。该剧改编自斯蒂芬·金2006年出版的同名小说,斯蒂芬·金将负责全部8集的剧本撰写。小说讲述莉西的丈夫去世两年,一系列的事件让莉西不得不面对她一直在压抑、并想要遗忘的有关丈夫的往事。朱丽安·摩尔、斯蒂芬·金、J·J·艾布拉姆斯、本·史蒂芬森等担任执行制片。
丽赛的故事/莉西的故事4k Liseys.Story.S01E01.HDR.2160p.WEB.H265美剧信息
  1. Video
  2. ID : 1
  3. Format : HEVC
  4. Format/Info : High Efficiency Video Coding
  5. Format profile : Main 10@L5@High
  6. HDR format : SMPTE ST 2086, HDR10 compatible
  7. Codec ID : V_MPEGH/ISO/HEVC
  8. Duration : 50 min 7 s
  9. Bit rate : 24.2 Mb/s
  10. Width : 3 840 pixels
  11. Height : 1 920 pixels
  12. Display aspect ratio : 2.000
  13. Frame rate mode : Constant
  14. Frame rate : 23.976 (24000/1001) FPS
  15. Color space : YUV
  16. Chroma subsampling : 4:2:0 (Type 2)
  17. Bit depth : 10 bits
  18. Bits/(Pixel*Frame) : 0.137
  19. Stream size : 8.46 GiB (95%)
  20. Language : English
  21. Default : Yes
  22. Forced : No
  23. Color range : Limited
  24. Color primaries : BT.2020
  25. Transfer characteristics : PQ
  26. Matrix coefficients : BT.2020 non-constant
  27. Mastering display color primaries : Display P3
  28. Mastering display luminance : min: 0.0050 cd/m2, max: 1000 cd/m2
  29. Maximum Content Light Level : 1478 cd/m2
  30. Maximum Frame-Average Light Level : 205 cd/m2

  31. Audio
  32. ID : 2
  33. Format : E-AC-3 JOC
  34. Format/Info : Enhanced AC-3 with Joint Object Coding
  35. Commercial name : Dolby Digital Plus with Dolby Atmos
  36. Codec ID : A_EAC3
  37. Duration : 50 min 7 s
  38. Bit rate mode : Constant
  39. Bit rate : 768 kb/s
  40. Channel(s) : 6 channels
  41. Channel layout : L R C LFE Ls Rs
  42. Sampling rate : 48.0 kHz
  43. Frame rate : 31.250 FPS (1536 SPF)
  44. Compression mode : Lossy
  45. Stream size : 275 MiB (3%)
  46. Language : English
  47. Service kind : Complete Main
  48. Default : Yes
  49. Forced : No
  50. Complexity index : 16
  51. Number of dynamic objects : 15
  52. Bed channel count : 1 channel
  53. Bed channel configuration : LFE

  54. Text #1
  55. ID : 3
  56. Format : UTF-8
  57. Codec ID : S_TEXT/UTF8
  58. Codec ID/Info : UTF-8 Plain Text
  59. Title : English
  60. Language : English
  61. Default : No
  62. Forced : No

  63. Text #2
  64. ID : 4
  65. Format : UTF-8
  66. Codec ID : S_TEXT/UTF8
  67. Codec ID/Info : UTF-8 Plain Text
  68. Title : Arabic
  69. Language : Arabic
  70. Default : No
  71. Forced : No

  72. Text #3
  73. ID : 5
  74. Format : UTF-8
  75. Codec ID : S_TEXT/UTF8
  76. Codec ID/Info : UTF-8 Plain Text
  77. Title : Bulgarian
  78. Language : Bulgarian
  79. Default : No
  80. Forced : No

  81. Text #4
  82. ID : 6
  83. Format : UTF-8
  84. Codec ID : S_TEXT/UTF8
  85. Codec ID/Info : UTF-8 Plain Text
  86. Title : Chinese Simplified
  87. Language : Chinese
  88. Default : No
  89. Forced : No

  90. Text #5
  91. ID : 7
  92. Format : UTF-8
  93. Codec ID : S_TEXT/UTF8
  94. Codec ID/Info : UTF-8 Plain Text
  95. Title : Chinese Traditional
  96. Language : Chinese
  97. Default : No
  98. Forced : No

  99. Text #6
  100. ID : 8
  101. Format : UTF-8
  102. Codec ID : S_TEXT/UTF8
  103. Codec ID/Info : UTF-8 Plain Text
  104. Title : Chinese Yue
  105. Language : Chinese
  106. Default : No
  107. Forced : No
复制代码


丽赛的故事/莉西的故事4k Liseys.Story.S01E01.HDR.2160p.WEB.H265美剧下载

莉西的故事4k Liseys.Story.S01E01.HDR.2160p.WEB.H265【8.90GB】
[Hao4k]莉西的故事4k Liseys.Story.S01E01.HDR.2160p.WEB.H265-GGEZ.torrent (45.16 KB)
回复

使用道具 举报

全部回复5

suoni2021 发表于 2021-6-5 07:35:43

suoni2021 2

2021-6-5 07:35:43

谢谢楼主分享啊,很喜欢看
回复 支持 反对

使用道具 举报

兰帕德玩摇滚 发表于 2021-6-5 21:09:46

兰帕德玩摇滚 3

2021-6-5 21:09:46

第二集呢?
回复 支持 反对

使用道具 举报

ooitismeoo 发表于 2021-6-6 09:35:36

ooitismeoo 4

2021-6-6 09:35:36

女主演过汉尼拔
回复 支持 反对

使用道具 举报

兰帕德玩摇滚 发表于 2021-6-11 19:12:35

兰帕德玩摇滚 5

2021-6-11 19:12:35

能更新吗???
回复 支持 反对

使用道具 举报

兰帕德玩摇滚 发表于 2021-6-12 20:02:59

兰帕德玩摇滚 6

2021-6-12 20:02:59

第二集?????????????
回复 支持 反对

使用道具 举报

   发表回复

您需要登录后才可以回帖 登录 | 立即注册

返回列表 本版积分规则

:
白银玩家
:
未填写

主题

帖子

积分1167

  • 在线客服

  • 返回顶部