微博 微信

Hao4K影音

电影频道
电影封面:
片  名: 好爽蛙4k
电影分类: 纪录片 
国  家: 美国 
年  代: 2020年
分 辨 率: 4K(3840x2160)
电影格式: MKV|REMUX 
画质标准: SDR 
音质编码: Dolby Digital Plus Audio 
电影声道: 5.1声道 
帧数/FPS: 23.976 帧
电影语言: 英文原版 
资源大小: 8.03 GB
导  演: Arthur Jones
豆瓣评分: 7.9 分
中文字幕: -
剧情简介: 聚焦漫画中说着“感觉真好蛙”的Pepe蛙,如何由一帧画面在网上爆火,成为全球知名、引起大量创作的魔性表情包,终至失控。而作者Matt Furie为夺回对角色的控制又做了什么。这是一个“奇怪而非常恐怖”的故事。
伙计,感觉不错啊 / 悲伤蛙/好爽蛙4k Feels.Good.Man.2020.2160p.WEB-DL.x265.10bit.SDR.DDP5.1-4k电影信息
  1. Video
  2. ID : 1
  3. Format : HEVC
  4. Format/Info : High Efficiency Video Coding
  5. Format profile : Main 10@L5@High
  6. Codec ID : V_MPEGH/ISO/HEVC
  7. Duration : 1 h 33 min
  8. Bit rate : 11.8 Mb/s
  9. Width : 3 838 pixels
  10. Height : 2 020 pixels
  11. Display aspect ratio : 1.900
  12. Frame rate mode : Constant
  13. Frame rate : 23.976 (24000/1001) FPS
  14. Color space : YUV
  15. Chroma subsampling : 4:2:0
  16. Bit depth : 10 bits
  17. Bits/(Pixel*Frame) : 0.064
  18. Stream size : 7.73 GiB (96%)
  19. Language : English
  20. Default : Yes
  21. Forced : No
  22. Color range : Limited
  23. Color primaries : BT.709
  24. Transfer characteristics : BT.709
  25. Matrix coefficients : BT.709

  26. Audio
  27. ID : 2
  28. Format : AC-3
  29. Format/Info : Audio Coding 3
  30. Commercial name : Dolby Digital
  31. Codec ID : A_AC3
  32. Duration : 1 h 33 min
  33. Bit rate mode : Constant
  34. Bit rate : 448 kb/s
  35. Channel(s) : 6 channels
  36. Channel layout : L R C LFE Ls Rs
  37. Sampling rate : 48.0 kHz
  38. Frame rate : 31.250 FPS (1536 SPF)
  39. Compression mode : Lossy
  40. Stream size : 300 MiB (4%)
  41. Language : English
  42. Service kind : Complete Main
  43. Default : Yes
  44. Forced : No

  45. Text
  46. ID : 3
  47. Format : UTF-8
  48. Codec ID : S_TEXT/UTF8
  49. Codec ID/Info : UTF-8 Plain Text
  50. Duration : 1 h 30 min
  51. Bit rate : 115 b/s
  52. Count of elements : 1958
  53. Stream size : 76.1 KiB (0%)
  54. Title : English (CC)
  55. Language : English
  56. Default : No
  57. Forced : No

  58. Menu
  59. 00:00:00.000 : en:Chapter 01
  60. 00:05:12.186 : en:Chapter 02
  61. 00:14:31.537 : en:Chapter 03
  62. 00:23:22.109 : en:Chapter 04
  63. 00:30:26.866 : en:Chapter 05
  64. 00:40:02.775 : en:Chapter 06
  65. 00:43:40.868 : en:Chapter 07
  66. 00:55:38.126 : en:Chapter 08
  67. 01:01:43.449 : en:Chapter 09
  68. 01:04:38.833 : en:Chapter 10
  69. 01:12:19.626 : en:Chapter 11
  70. 01:16:24.621 : en:Chapter 12
  71. 01:22:29.444 : en:Chapter 13
  72. 01:25:54.858 : en:Chapter 14
复制代码


伙计,感觉不错啊 / 悲伤蛙/好爽蛙4k Feels.Good.Man.2020.2160p.WEB-DL.x265.10bit.SDR.DDP5.1-4k电影下载
好爽蛙4k Feels.Good.Man.2020.2160p.WEB-DL.x265.10bit.SDR.DDP5.1【8.03 GB】
[Hao4k]好爽蛙4k Feels.Good.Man.2020.2160p.WEB-DL.x265.10bit.SDR.DDP5.1-PlayWEB.torrent (40.79 KB, 售价: 2 K币)
回复

使用道具 举报

全部回复14

pdsaaa 发表于 2021-6-5 13:30:23

pdsaaa 2

2021-6-5 13:30:23

好人一生平安,谢谢楼主
回复 支持 反对

使用道具 举报

hhhz 发表于 2021-6-5 18:50:21

hhhz 3

2021-6-5 18:50:21

感谢楼主分享!
回复 支持 反对

使用道具 举报

mazeg 发表于 2021-6-6 16:24:22

mazeg 4

2021-6-6 16:24:22

纪录片不容错过。
回复 支持 反对

使用道具 举报

月光麦田 发表于 2021-6-6 17:11:11

月光麦田 5

2021-6-6 17:11:11

谢谢分享
回复 支持 反对

使用道具 举报

tianxing214 发表于 2021-6-6 22:49:44

tianxing214 6

2021-6-6 22:49:44

谢谢分享
回复 支持 反对

使用道具 举报

nijat1977 发表于 2021-6-7 10:08:41

nijat1977 7

2021-6-7 10:08:41


谢谢分享
回复 支持 反对

使用道具 举报

2621298165 发表于 2021-6-8 20:50:16

2621298165 8

2021-6-8 20:50:16

感谢谢谢
回复 支持 反对

使用道具 举报

wybinhua 发表于 2021-6-8 22:49:13

wybinhua 9

2021-6-8 22:49:13

这部好看吗!
回复 支持 反对

使用道具 举报

dingjin850115 发表于 2021-6-9 10:43:49

dingjin850115 10

2021-6-9 10:43:49

感谢分享。
回复 支持 反对

使用道具 举报

56789trewq 发表于 2021-6-9 14:35:25

56789trewq 11

2021-6-9 14:35:25

感謝樓主在hao4k分享4k視頻内容,也感謝樓主的辛苦付出!
回复 支持 反对

使用道具 举报

fjzzlth 发表于 2021-6-9 22:41:40

fjzzlth 12

2021-6-9 22:41:40

没有字幕?
回复 支持 反对

使用道具 举报

CLIMAXSKYLER 发表于 2021-6-11 22:55:58

CLIMAXSKYLER 13

2021-6-11 22:55:58

感谢楼主分享
回复 支持 反对

使用道具 举报

zsad 发表于 4 天前

zsad 14

4 天前

谢谢分享
回复 支持 反对

使用道具 举报

dcw3344 发表于 3 天前

dcw3344 15

3 天前

感谢分享 辛苦了
回复 支持 反对

使用道具 举报

   发表回复

您需要登录后才可以回帖 登录 | 立即注册

返回列表 本版积分规则

  • 在线客服

  • 返回顶部