微博 微信

Hao4K影音

电影频道
电影封面:
片  名: 幸福终点站4k
电影分类: 剧情 喜剧 爱情片 
国  家: 美国 
年  代: 00年代
分 辨 率: 4K(3840x2160)
电影格式: MKV|REMUX 
画质标准: SDR 
音质编码: DTS-HD Master Audio 
电影声道: 5.1声道 
帧数/FPS: 23.976 帧
电影语言: 英文原版 
资源大小: 17.56 GB
导  演: 史蒂文·斯皮尔伯格
豆瓣评分: 8.8 分
中文字幕: /thread-58111-1-1.html
剧情简介: 为了完成父亲的心愿,维克多(汤姆•汉克斯 Tom Hanks 饰)从故国乘坐飞机前往美国肯尼迪机场,但戏剧性的事情发生了:他被告知祖国发生政变,而他的身份证护照一一失效,同时他的签证也无法再使用。进退两难的维克多只有在机场滞留,等待新证件的办理。
  但是,他在机场等待了整整9个月。在这9个月里面,他用机场的洗手间洗漱,在候机室睡觉,他已经学懂因地制宜,在机场照料自己的生活,甚至还找了一份建筑工地工作。然而维克多的邋遢晦气却招来了机场负责人弗兰克(史坦利•图齐 Stanley Tucci 饰)的不满,而恐怕更令他气愤妒忌的是,美丽的空姐艾米利亚(凯瑟琳•泽塔-琼斯 Catherine Zeta-Jones 饰)竟然爱上了维克多。处在甜蜜中的维克多,也在慢慢观察机场的人生百态,自得其乐。
机场客运站(港) / 航站情缘(台) / 航站奇缘 / 单程机票航站奇缘 / 候机楼 / 单程机票 / 爱你无国界/幸福终点站4k The.Terminal.2004.2160p.WEB-DL.x265.8bit.SDR.DTS-HD.MA.5.1-4k电影信息
  1. Video
  2. ID : 1
  3. Format : HEVC
  4. Format/Info : High Efficiency Video Coding
  5. Format profile : Main@L5@High
  6. Codec ID : V_MPEGH/ISO/HEVC
  7. Duration : 2 h 8 min
  8. Bit rate : 15.0 Mb/s
  9. Width : 3 840 pixels
  10. Height : 2 160 pixels
  11. Display aspect ratio : 16:9
  12. Frame rate mode : Constant
  13. Frame rate : 23.976 (24000/1001) FPS
  14. Color space : YUV
  15. Chroma subsampling : 4:2:0
  16. Bit depth : 8 bits
  17. Bits/(Pixel*Frame) : 0.075
  18. Stream size : 13.5 GiB (77%)
  19. Default : Yes
  20. Forced : No
  21. Color range : Limited
  22. Matrix coefficients : BT.709

  23. Audio #1
  24. ID : 2
  25. Format : DTS XLL
  26. Format/Info : Digital Theater Systems
  27. Commercial name : DTS-HD Master Audio
  28. Codec ID : A_DTS
  29. Duration : 2 h 8 min
  30. Bit rate mode : Variable
  31. Bit rate : 4 087 kb/s
  32. Channel(s) : 6 channels
  33. Channel layout : C L R Ls Rs LFE
  34. Sampling rate : 48.0 kHz
  35. Frame rate : 93.750 FPS (512 SPF)
  36. Bit depth : 24 bits
  37. Compression mode : Lossless
  38. Delay relative to video : 1 s 450 ms
  39. Stream size : 3.68 GiB (21%)
  40. Title : DTS-HD MA 5.1
  41. Language : English
  42. Default : Yes
  43. Forced : No

  44. Audio #2
  45. ID : 3
  46. Format : AAC LC
  47. Format/Info : Advanced Audio Codec Low Complexity
  48. Codec ID : A_AAC-2
  49. Duration : 2 h 8 min
  50. Bit rate : 445 kb/s
  51. Channel(s) : 6 channels
  52. Channel layout : C L R Ls Rs LFE
  53. Sampling rate : 48.0 kHz
  54. Frame rate : 46.875 FPS (1024 SPF)
  55. Compression mode : Lossy
  56. Stream size : 410 MiB (2%)
  57. Language : English
  58. Default : No
  59. Forced : No

  60. Text
  61. ID : 4
  62. Format : UTF-8
  63. Codec ID : S_TEXT/UTF8
  64. Codec ID/Info : UTF-8 Plain Text
  65. Duration : 2 h 0 min
  66. Bit rate : 64 b/s
  67. Count of elements : 1884
  68. Stream size : 56.7 KiB (0%)
  69. Title : English
  70. Language : English
  71. Default : Yes
  72. Forced : No

  73. Menu
  74. 00:00:00.000 : Main Title
  75. 00:03:15.070 : Crack in the System
  76. 00:08:59.289 : America Closed
  77. 00:14:02.050 : Do You Have an Appointment?
  78. 00:15:27.260 : Gate 67
  79. 00:18:34.447 : Acting Field Commissioner
  80. 00:20:25.641 : Unacceptable
  81. 00:23:04.258 : Unhooking the Fish
  82. 00:27:40.325 : Sensible Heels
  83. 00:29:41.863 : The Carts
  84. 00:32:28.572 : 50/50
  85. 00:35:06.187 : You Feed Me, I'll Feed You
  86. 00:41:22.146 : Crowded
  87. 00:47:21.297 : Observations
  88. 00:52:10.169 : The Position Has Been Filled
  89. 00:57:34.076 : After Hours
  90. 01:00:36.341 : Rewriting History
  91. 01:05:59.998 : The Inspection
  92. 01:16:04.560 : If I Stay, You Stay
  93. 01:18:18.652 : The Dinner Appointment
  94. 01:29:05.674 : Tokens of Love
  95. 01:32:53.860 : Why Viktor Navorski?
  96. 01:35:16.002 : Keeping Promises
  97. 01:42:00.114 : The War Is Over
  98. 01:48:59.491 : Family
  99. 01:51:01.071 : Viktor's Leaving!
  100. 01:57:51.940 : 161 Lexington
  101. 02:01:33.703 : End Credits
复制代码


机场客运站(港) / 航站情缘(台) / 航站奇缘 / 单程机票航站奇缘 / 候机楼 / 单程机票 / 爱你无国界/幸福终点站4k The.Terminal.2004.2160p.WEB-DL.x265.8bit.SDR.DTS-HD.MA.5.1-4k电影下载

幸福终点站4k The.Terminal.2004.2160p.WEB-DL.x265.8bit.SDR.DTS-HD.MA.5.1【17.56GB】
[Hao4k]幸福终点站4k The.Terminal.2004.2160p.WEB-DL.x265.8bit.SDR.DTS-HD.MA.5.1-S.torrent (88.46 KB, 售价: 2 K币)
回复

使用道具 举报

全部回复46

chlwql123 发表于 2021-6-5 17:14:33

chlwql123 2

2021-6-5 17:14:33

太改了
回复 支持 反对

使用道具 举报

mehottoo 发表于 2021-6-5 17:32:08

mehottoo 3

2021-6-5 17:32:08

史匹堡大导演的经典爱情片,楼主给力!
回复 支持 反对

使用道具 举报

vincent4587 发表于 2021-6-5 17:41:39

vincent4587 4

2021-6-5 17:41:39

一部不错的轻喜剧,谢谢分享
回复 支持 反对

使用道具 举报

lhgctt 发表于 2021-6-5 19:54:14

lhgctt 5

2021-6-5 19:54:14

谢谢分享,辛苦了
回复 支持 反对

使用道具 举报

yuin01 发表于 2021-6-5 20:30:35

yuin01 6

2021-6-5 20:30:35

感谢分享,下来看看!
回复 支持 反对

使用道具 举报

gudianxiaobao 发表于 2021-6-5 20:42:18

gudianxiaobao 7

2021-6-5 20:42:18

喜欢,下载来看看
回复 支持 反对

使用道具 举报

三军将士 发表于 2021-6-5 20:44:02

三军将士 8

2021-6-5 20:44:02

经典,谢谢分享
回复 支持 反对

使用道具 举报

xxw8888 发表于 2021-6-5 21:36:52 Hao4K手机版

xxw8888 9

2021-6-5 21:36:52

谢谢分享
回复 支持 反对

使用道具 举报

loveqiqifv 发表于 2021-6-5 22:47:13

loveqiqifv 10

2021-6-5 22:47:13

今天东西好多啊!
回复 支持 反对

使用道具 举报

leedaye 发表于 2021-6-5 23:06:19

leedaye 11

2021-6-5 23:06:19

很励志的一部片子,主人公的心态真赞!
回复 支持 反对

使用道具 举报

kltan9988 发表于 2021-6-6 00:02:24

kltan9988 12

2021-6-6 00:02:24

谢谢分享
回复 支持 反对

使用道具 举报

tomcatf 发表于 2021-6-6 01:01:31

tomcatf 13

2021-6-6 01:01:31

很不错的一部片子,其实知道这片子的人不多.
回复 支持 反对

使用道具 举报

dqxa 发表于 2021-6-6 07:35:13

dqxa 14

2021-6-6 07:35:13

经典影片,顶起!
回复 支持 反对

使用道具 举报

chenbz 发表于 2021-6-6 07:48:46

chenbz 15

2021-6-6 07:48:46

感谢你的分享,好电影呢。
回复 支持 反对

使用道具 举报

mo814876560 发表于 2021-6-6 08:07:26

mo814876560 16

2021-6-6 08:07:26

喜欢,谢谢楼主的分享。
回复 支持 反对

使用道具 举报

凭顺意 发表于 2021-6-6 08:15:37

凭顺意 17

2021-6-6 08:15:37

喜欢这部剧,必下重温,感谢大神无私分享。
回复 支持 反对

使用道具 举报

cdyangjun2019 发表于 2021-6-6 08:40:32

cdyangjun2019 18

2021-6-6 08:40:32

经典电影,谢谢楼主分享
回复 支持 反对

使用道具 举报

   发表回复

您需要登录后才可以回帖 登录 | 立即注册

返回列表 本版积分规则

  • 在线客服

  • 返回顶部