微博 微信

Hao4K影音

[5.1声道] 精灵旅社2 国台粤三国配+简繁字幕多条

2021-6-9 06:12:11 3054 1 回帖奖励 |倒序浏览 |阅读模式

cgb555 帖主

2021-6-6 23:48:26

精灵旅社2音轨,含国配台配粤语三条AC3-5.1音轨+简繁字幕多条,封装-1000毫秒完美匹配本站4k

  1. General
  2. Unique ID                      : 177130138780675841238645787071155115439 (0x85420619ED5A3EB3A97A8B864E5595AF)
  3. Complete name                  : C:\Users\cngbn\Desktop\精灵旅社2 国配AC3-5.1.mka
  4. Format                         : Matroska
  5. Format version                 : Version 4
  6. File size                      : 1.30 GiB
  7. Duration                       : 1 h 29 min
  8. Overall bit rate               : 2 081 kb/s
  9. Track name                     : 精灵旅社2 HEVC
  10. Encoded date                   : UTC 2021-06-06 12:07:24
  11. Writing application            : mkvmerge v18.0.0 ('Apricity') 64-bit
  12. Writing library                : libebml v1.3.5 + libmatroska v1.4.8
  13. Attachments                    : 方正艺黑简体.ttf / 方正中倩简体.TTF / ruachlet.TTF / 方正大黑_GBK.ttf / cronospro.otf / hwkaiti.ttf / FZDBSJW.TTF

  14. Audio #1
  15. ID                             : 1
  16. Format                         : AC-3
  17. Format/Info                    : Audio Coding 3
  18. Commercial name                : Dolby Digital
  19. Codec ID                       : A_AC3
  20. Duration                       : 1 h 29 min
  21. Bit rate mode                  : Constant
  22. Bit rate                       : 640 kb/s
  23. Channel(s)                     : 6 channels
  24. Channel layout                 : L R C LFE Ls Rs
  25. Sampling rate                  : 48.0 kHz
  26. Frame rate                     : 31.250 FPS (1536 SPF)
  27. Compression mode               : Lossy
  28. Stream size                    : 409 MiB (31%)
  29. Title                          : 大陆国配
  30. Language                       : Chinese
  31. Service kind                   : Complete Main
  32. Default                        : Yes
  33. Forced                         : No

  34. Audio #2
  35. ID                             : 2
  36. Format                         : AC-3
  37. Format/Info                    : Audio Coding 3
  38. Commercial name                : Dolby Digital
  39. Codec ID                       : A_AC3
  40. Duration                       : 1 h 29 min
  41. Bit rate mode                  : Constant
  42. Bit rate                       : 640 kb/s
  43. Channel(s)                     : 6 channels
  44. Channel layout                 : L R C LFE Ls Rs
  45. Sampling rate                  : 48.0 kHz
  46. Frame rate                     : 31.250 FPS (1536 SPF)
  47. Compression mode               : Lossy
  48. Stream size                    : 409 MiB (31%)
  49. Title                          : 台配国语DD5.1
  50. Language                       : Chinese
  51. Service kind                   : Complete Main
  52. Default                        : No
  53. Forced                         : No

  54. Audio #3
  55. ID                             : 3
  56. Format                         : AC-3
  57. Format/Info                    : Audio Coding 3
  58. Commercial name                : Dolby Digital
  59. Codec ID                       : A_AC3
  60. Duration                       : 1 h 29 min
  61. Bit rate mode                  : Constant
  62. Bit rate                       : 640 kb/s
  63. Channel(s)                     : 6 channels
  64. Channel layout                 : L R C LFE Ls Rs
  65. Sampling rate                  : 48.0 kHz
  66. Frame rate                     : 31.250 FPS (1536 SPF)
  67. Compression mode               : Lossy
  68. Stream size                    : 409 MiB (31%)
  69. Title                          : 粤配DD5.1
  70. Language                       : Chinese
  71. Service kind                   : Complete Main
  72. Default                        : No
  73. Forced                         : No

  74. Text #1
  75. ID                             : 4
  76. Format                         : ASS
  77. Codec ID                       : S_TEXT/ASS
  78. Codec ID/Info                  : Advanced Sub Station Alpha
  79. Duration                       : 1 h 19 min
  80. Bit rate                       : 319 b/s
  81. Count of elements              : 1311
  82. Compression mode               : Lossless
  83. Stream size                    : 186 KiB (0%)
  84. Title                          : ASS特效简英双字
  85. Language                       : Chinese
  86. Default                        : Yes
  87. Forced                         : Yes

  88. Text #2
  89. ID                             : 5
  90. Format                         : ASS
  91. Codec ID                       : S_TEXT/ASS
  92. Codec ID/Info                  : Advanced Sub Station Alpha
  93. Duration                       : 1 h 20 min
  94. Bit rate                       : 286 b/s
  95. Count of elements              : 1240
  96. Compression mode               : Lossless
  97. Stream size                    : 169 KiB (0%)
  98. Title                          : ASS简英双字 CMCT
  99. Language                       : Chinese
  100. Default                        : No
  101. Forced                         : No

  102. Text #3
  103. ID                             : 6
  104. Format                         : PGS
  105. Muxing mode                    : zlib
  106. Codec ID                       : S_HDMV/PGS
  107. Codec ID/Info                  : Picture based subtitle format used on BDs/HD-DVDs
  108. Duration                       : 1 h 19 min
  109. Bit rate                       : 47.3 kb/s
  110. Count of elements              : 3416
  111. Stream size                    : 26.9 MiB (2%)
  112. Title                          : SUP特效简英双字
  113. Language                       : Chinese
  114. Default                        : No
  115. Forced                         : No

  116. Text #4
  117. ID                             : 7
  118. Format                         : PGS
  119. Muxing mode                    : zlib
  120. Codec ID                       : S_HDMV/PGS
  121. Codec ID/Info                  : Picture based subtitle format used on BDs/HD-DVDs
  122. Duration                       : 1 h 19 min
  123. Bit rate                       : 36.0 kb/s
  124. Count of elements              : 2142
  125. Stream size                    : 20.4 MiB (2%)
  126. Title                          : SUP简英双字
  127. Language                       : Chinese
  128. Default                        : No
  129. Forced                         : No

  130. Text #5
  131. ID                             : 8
  132. Format                         : PGS
  133. Muxing mode                    : zlib
  134. Codec ID                       : S_HDMV/PGS
  135. Codec ID/Info                  : Picture based subtitle format used on BDs/HD-DVDs
  136. Duration                       : 1 h 19 min
  137. Bit rate                       : 37.0 kb/s
  138. Count of elements              : 2142
  139. Stream size                    : 21.0 MiB (2%)
  140. Title                          : SUP繁英双字
  141. Language                       : Chinese
  142. Default                        : No
  143. Forced                         : No

  144. Text #6
  145. ID                             : 9
  146. Format                         : PGS
  147. Muxing mode                    : zlib
  148. Codec ID                       : S_HDMV/PGS
  149. Codec ID/Info                  : Picture based subtitle format used on BDs/HD-DVDs
  150. Duration                       : 1 h 19 min
  151. Bit rate                       : 57.7 kb/s
  152. Count of elements              : 2142
  153. Stream size                    : 32.8 MiB (2%)
  154. Title                          : SUP中简
  155. Language                       : Chinese
  156. Default                        : No
  157. Forced                         : No

  158. Text #7
  159. ID                             : 10
  160. Format                         : PGS
  161. Muxing mode                    : zlib
  162. Codec ID                       : S_HDMV/PGS
  163. Codec ID/Info                  : Picture based subtitle format used on BDs/HD-DVDs
  164. Duration                       : 1 h 19 min
  165. Bit rate                       : 58.5 kb/s
  166. Count of elements              : 2142
  167. Stream size                    : 33.3 MiB (3%)
  168. Title                          : SUP中繁
  169. Language                       : Chinese
  170. Default                        : No
  171. Forced                         : No

  172. Text #8
  173. ID                             : 11
  174. Format                         : UTF-8
  175. Codec ID                       : S_TEXT/UTF8
  176. Codec ID/Info                  : UTF-8 Plain Text
  177. Duration                       : 1 h 18 min
  178. Bit rate                       : 64 b/s
  179. Count of elements              : 1235
  180. Stream size                    : 36.8 KiB (0%)
  181. Title                          : SRT中简
  182. Language                       : Chinese
  183. Default                        : No
  184. Forced                         : No
复制代码
精灵旅社2 国台粤三国配+简繁字幕下载
提取码:https://pan.baidu.com/s/1jbNLlX-t2xw_eD2N04qE8w


评分

参与人数 1K币 +10 收起 理由
花落无声 + 10 谢谢分享!

查看全部评分

回复

使用道具 举报

全部回复1

kingsonjiang 发表于 2021-6-9 06:12:11

kingsonjiang 2

2021-6-9 06:12:11

提取码是多少啊 楼主
回复 支持 反对

使用道具 举报

   发表回复

您需要登录后才可以回帖 登录 | 立即注册

返回列表 本版积分规则

:
青铜玩家
:
未填写

主题

帖子

积分260

  • 在线客服

  • 返回顶部