微博 微信

Hao4K影音

[美剧] 洛基 第一季4k Loki.S01E01.Glorious.Purpose.2160p美剧下载

5 天前 166360 59 |只看大图 回帖奖励 |倒序浏览 |阅读模式

大红色 帖主

5 天前

电视剧频道
电视剧封面:
电视剧名: 洛基 第一季4k
年  代: 2021  
国  家: 美国
类  别: 动作 科幻 冒险 奇幻 
语  言: 英语
字  幕: 英文原版
上映日期: 2021-06-09
文件格式: mkv    
视频效果: 4K(3840x2160)    
资源大小: 7.86 GB
片  长: 55 分钟
导  演: 凯特·赫伦
剧情简介: -
洛奇 / 洛基传 / Loki/洛基 第一季4k Loki.S01E01.Glorious.Purpose.2160p.WEB-DL.x265.10bit.HDR.DDP5.1.Atmos-4k美剧信息
  1. Video
  2. ID : 1
  3. Format : HEVC
  4. Format/Info : High Efficiency Video Coding
  5. Format profile : Main 10@L5@Main
  6. Codec ID : V_MPEGH/ISO/HEVC
  7. Duration : 50 min 19 s
  8. Bit rate : 21.6 Mb/s
  9. Width : 3 840 pixels
  10. Height : 2 160 pixels
  11. Display aspect ratio : 16:9
  12. Frame rate mode : Constant
  13. Frame rate : 24.000 FPS
  14. Color space : YUV
  15. Chroma subsampling : 4:2:0
  16. Bit depth : 10 bits
  17. Bits/(Pixel*Frame) : 0.108
  18. Stream size : 7.59 GiB (97%)
  19. Writing library : x265 3.5:[Linux][GCC 7.5.0][64 bit] 10bit
  20. Encoding settings : cpuid=1111039 / frame-threads=1 / wpp / no-pmode / no-pme / no-psnr / no-ssim / log-level=2 / input-csp=1 / input-res=3840x2160 / interlace=0 / total-frames=0 / level-idc=50 / high-tier=0 / uhd-bd=0 / ref=3 / no-allow-non-conformance / repeat-headers / annexb / no-aud / no-hrd / info / hash=0 / no-temporal-layers / no-open-gop / min-keyint=48 / keyint=48 / gop-lookahead=0 / bframes=2 / b-adapt=0 / b-pyramid / bframe-bias=0 / rc-lookahead=48 / lookahead-slices=8 / scenecut=0 / hist-scenecut=0 / radl=0 / splice / no-intra-refresh / ctu=32 / min-cu-size=8 / no-rect / no-amp / max-tu-size=16 / tu-inter-depth=2 / tu-intra-depth=2 / limit-tu=0 / rdoq-level=1 / dynamic-rd=0.00 / no-ssim-rd / signhide / no-tskip / nr-intra=0 / nr-inter=0 / no-constrained-intra / no-strong-intra-smoothing / max-merge=3 / limit-refs=1 / no-limit-modes / me=1 / subme=2 / merange=44 / temporal-mvp / no-frame-dup / no-hme / weightp / no-weightb / no-analyze-src-pics / deblock=0:0 / no-sao / no-sao-non-deblock / rd=4 / selective-sao=0 / early-skip / rskip / no-fast-intra / no-tskip-fast / no-cu-lossless / b-intra / no-splitrd-skip / rdpenalty=1 / psy-rd=1.60 / psy-rdoq=5.00 / no-rd-refine / no-lossless / cbqpoffs=0 / crqpoffs=0 / rc=abr / bitrate=23000 / qcomp=0.75 / qpstep=4 / stats-write=0 / stats-read=0 / vbv-maxrate=25000 / vbv-bufsize=25000 / vbv-init=0.9 / ipratio=1.40 / pbratio=1.30 / aq-mode=3 / aq-strength=1.00 / no-cutree / zone-count=0 / no-strict-cbr / qg-size=32 / no-rc-grain / qpmax=69 / qpmin=0 / no-const-vbv / sar=1 / overscan=0 / videoformat=5 / range=0 / colorprim=9 / transfer=16 / colormatrix=9 / chromaloc=0 / display-window=0 / cll=0,0 / min-luma=0 / max-luma=1023 / log2-max-poc-lsb=8 / vui-timing-info / vui-hrd-info / slices=1 / no-opt-qp-pps / no-opt-ref-list-length-pps / no-multi-pass-opt-rps / scenecut-bias=0.00 / hist-threshold=0.01 / no-opt-cu-delta-qp / no-aq-motion / no-hdr10 / hdr10-opt / no-dhdr10-opt / no-idr-recovery-sei / analysis-reuse-level=0 / analysis-save-reuse-level=0 / analysis-load-reuse-level=0 / scale-factor=0 / refine-intra=0 / refine-inter=0 / refine-mv=1 / refine-ctu-distortion=0 / no-limit-sao / ctu-info=0 / no-lowpass-dct / refine-analysis-type=0 / copy-pic=1 / max-ausize-factor=1.0 / no-dynamic-refine / no-single-sei / no-hevc-aq / no-svt / no-field / qp-adaptation-range=1.00 / no-scenecut-aware-qpconformance-window-offsets / right=0 / bottom=0
  21. Default : Yes
  22. Forced : No
  23. Color range : Limited
  24. Color primaries : BT.2020
  25. Transfer characteristics : PQ
  26. Matrix coefficients : BT.2020 non-constant

  27. Audio
  28. ID : 2
  29. Format : E-AC-3 JOC
  30. Format/Info : Enhanced AC-3 with Joint Object Coding
  31. Commercial name : Dolby Digital Plus with Dolby Atmos
  32. Codec ID : A_EAC3
  33. Duration : 50 min 19 s
  34. Bit rate mode : Constant
  35. Bit rate : 768 kb/s
  36. Channel(s) : 6 channels
  37. Channel layout : L R C LFE Ls Rs
  38. Sampling rate : 48.0 kHz
  39. Frame rate : 31.250 FPS (1536 SPF)
  40. Compression mode : Lossy
  41. Stream size : 276 MiB (3%)
  42. Language : English
  43. Service kind : Complete Main
  44. Default : Yes
  45. Forced : No
  46. Complexity index : 16
  47. Number of dynamic objects : 15
  48. Bed channel count : 1 channel
  49. Bed channel configuration : LFE

  50. Text #1
  51. ID : 3
  52. Format : UTF-8
  53. Codec ID : S_TEXT/UTF8
  54. Codec ID/Info : UTF-8 Plain Text
  55. Duration : 50 min 5 s
  56. Bit rate : 55 b/s
  57. Count of elements : 688
  58. Stream size : 20.4 KiB (0%)
  59. Title : English (SDH)
  60. Language : English
  61. Default : Yes
  62. Forced : No

  63. Text #2
  64. ID : 4
  65. Format : UTF-8
  66. Codec ID : S_TEXT/UTF8
  67. Codec ID/Info : UTF-8 Plain Text
  68. Duration : 50 min 6 s
  69. Bit rate : 45 b/s
  70. Count of elements : 409
  71. Stream size : 16.6 KiB (0%)
  72. Title : Dansk
  73. Language : Danish
  74. Default : No
  75. Forced : No

  76. Text #3
  77. ID : 5
  78. Format : UTF-8
  79. Codec ID : S_TEXT/UTF8
  80. Codec ID/Info : UTF-8 Plain Text
  81. Duration : 50 min 6 s
  82. Bit rate : 46 b/s
  83. Count of elements : 558
  84. Stream size : 17.2 KiB (0%)
  85. Title : Deutsch
  86. Language : German
  87. Default : No
  88. Forced : No

  89. Text #4
  90. ID : 6
  91. Format : UTF-8
  92. Codec ID : S_TEXT/UTF8
  93. Codec ID/Info : UTF-8 Plain Text
  94. Duration : 50 min 13 s
  95. Bit rate : 49 b/s
  96. Count of elements : 574
  97. Stream size : 18.0 KiB (0%)
  98. Title : Español (Latinoamérica)
  99. Language : Spanish
  100. Default : No
  101. Forced : No

  102. Text #5
  103. ID : 7
  104. Format : UTF-8
  105. Codec ID : S_TEXT/UTF8
  106. Codec ID/Info : UTF-8 Plain Text
  107. Duration : 50 min 13 s
  108. Bit rate : 48 b/s
  109. Count of elements : 573
  110. Stream size : 17.9 KiB (0%)
  111. Title : Español
  112. Language : Spanish
  113. Default : No
  114. Forced : No

  115. Text #6
  116. ID : 8
  117. Format : UTF-8
  118. Codec ID : S_TEXT/UTF8
  119. Codec ID/Info : UTF-8 Plain Text
  120. Duration : 50 min 6 s
  121. Bit rate : 42 b/s
  122. Count of elements : 573
  123. Stream size : 15.6 KiB (0%)
  124. Title : Suomi
  125. Language : Finnish
  126. Default : No
  127. Forced : No
复制代码


洛奇 / 洛基传 / Loki/洛基 第一季4k Loki.S01E01.Glorious.Purpose.2160p.WEB-DL.x265.10bit.HDR.DDP5.1.Atmos-4k美剧下载

洛基 第一季4k Loki.S01E01.Glorious.Purpose.2160p.WEB-DL.x265.10bit.HDR.DDP5.1.Atmos【7.86 GB】
[Hao4k]洛基 第一季4k Loki.S01E01.Glorious.Purpose.2160p.WEB-DL.x265.10bit.HDR.DD.torrent (39.96 KB)

洛基 第一季4k Loki.S01E01.Glorious.Purpose.2160p.WEB-DL.x265.8bit.SDR.DDP5.1.Atmos【7.07 GB】
[Hao4k]洛基 第一季4k Loki.S01E01.Glorious.Purpose.2160p.WEB-DL.x265.8bit.SDR.DDP.torrent (36.02 KB)

字幕下载:https://www.hao4k.cn/thread-58297-1-1.html
分享到:  QQ好友和群QQ好友和群
回复

使用道具 举报

全部回复59

推荐
l901164empty1 发表于 5 天前

l901164empty1 推荐

5 天前

可惜沒有繁中字幕,還是習慣看繁中字幕,不過還是感謝大大,希望別再向其他美劇一樣出一集就來一次新主題看了就煩~哈哈
回复 支持 2 反对 1

使用道具 举报

推荐
gummer 发表于 3 天前 Hao4K手机版

gummer 推荐

3 天前

l901164empty1 发表于 2021-6-9 21:32
可惜沒有繁中字幕,還是習慣看繁中字幕,不過還是感謝大大,希望別再向其他美劇一樣出一集就來一次新主題看 ...

你下载了吗?简体 繁体都有的,不过繁体是香港版哈哈
回复 支持 反对

使用道具 举报

2
mecool 发表于 5 天前

mecool 2

5 天前

我来看看
回复 支持 反对

使用道具 举报

3
姜姜0311 发表于 5 天前

姜姜0311 3

5 天前

楼主牛逼
回复 支持 反对

使用道具 举报

4
d370216774 发表于 5 天前

d370216774 4

5 天前

楼主感谢  顶 给力
回复 支持 反对

使用道具 举报

5
peach93 发表于 5 天前

peach93 5

5 天前

感谢感谢楼主
回复 支持 反对

使用道具 举报

6
Liuxudong926 发表于 5 天前 Hao4K手机版

Liuxudong926 6

5 天前

谢谢楼主分享,辛苦了!
回复 支持 反对

使用道具 举报

7
hong111111 发表于 5 天前

hong111111 7

5 天前

谢谢分析
回复 支持 反对

使用道具 举报

8
vincent4587 发表于 5 天前

vincent4587 8

5 天前

就指着抖森了
回复 支持 反对

使用道具 举报

9
bane 发表于 5 天前

bane 9

5 天前

谢谢了
回复 支持 反对

使用道具 举报

10
nesque 发表于 5 天前

nesque 10

5 天前

楼主给力啊
回复 支持 反对

使用道具 举报

11
sb123123 发表于 5 天前

sb123123 11

5 天前

自带字幕的吗?
回复 支持 反对

使用道具 举报

12
RE‘Born 发表于 5 天前

RE‘Born 12

5 天前

楼主,字幕在哪找??
回复 支持 反对

使用道具 举报

13
18621984421 发表于 5 天前

18621984421 13

5 天前

楼主威武啊
回复 支持 反对

使用道具 举报

14
ym6322 发表于 5 天前

ym6322 14

5 天前

RE‘Born 发表于 2021-6-9 19:57
楼主,字幕在哪找??

字幕就在影片里面的了! 在你的播放器找
回复 支持 反对

使用道具 举报

15
yearaiaist 发表于 5 天前

yearaiaist 15

5 天前

楼主以后会更新后面的剧集吗 自带字幕太棒了!
回复 支持 反对

使用道具 举报

16
bingdimi 发表于 5 天前

bingdimi 16

5 天前

谢谢了!
回复 支持 反对

使用道具 举报

17
love我是萧何 发表于 5 天前

love我是萧何 17

5 天前

就指着抖森了
!
回复 支持 反对

使用道具 举报

18
大红色 发表于 5 天前

大红色 18

5 天前

yearaiaist 发表于 2021-6-9 20:32
楼主以后会更新后面的剧集吗 自带字幕太棒了!

出来了直接会在帖子下方更新的,关注哦
回复 支持 反对

使用道具 举报

   发表回复

您需要登录后才可以回帖 登录 | 立即注册

返回列表 本版积分规则

:
白银玩家
:
未填写

主题

帖子

积分1149

  • 在线客服

  • 返回顶部