微博 微信

Hao4K影音

电影频道
电影封面:
片  名: 无限4k
电影分类: 科幻 惊悚 
国  家: 美国 
年  代: 2020年
分 辨 率: 4K(3840x2160)
电影格式: MKV|REMUX 
画质标准: HDR 10+ 
音质编码: Dolby Digital Audio 
电影声道: 其他 
帧数/FPS: 23.976 帧
电影语言: 英文原版 
资源大小: 10.99 GB
导  演: 安东尼·福奎阿
豆瓣评分:
中文字幕: -
剧情简介: 改编自D. Eric Maikranz所著小说《转世文献》(The Rein carnationist Papers),聚焦一个被自己前两世的记忆缠绕的男子,引出一群几乎长生不死、几世纪来多次转生的人,被称为“无限/无穷之人”,他们的组织叫“Cognomina”。为了打败想毁灭地球的邪恶力量,他们必须依靠这个精神分裂的男子,而后者先要搞清楚:他常做的奇怪的梦都是前世的记忆。
无限轮回/无限4k Infinite.2021.HDR.2160p.WEB.H265-4k电影下载
  1. Video
  2. ID : 1
  3. Format : HEVC
  4. Format/Info : High Efficiency Video Coding
  5. Format profile : Main 10@L5@High
  6. HDR format : SMPTE ST 2094 App 4, Version 1, HDR10+ Profile B compatible
  7. Codec ID : V_MPEGH/ISO/HEVC
  8. Duration : 1 h 46 min
  9. Bit rate : 14.0 Mb/s
  10. Width : 3 840 pixels
  11. Height : 2 160 pixels
  12. Display aspect ratio : 16:9
  13. Frame rate mode : Constant
  14. Frame rate : 23.976 (24000/1001) FPS
  15. Color space : YUV
  16. Chroma subsampling : 4:2:0 (Type 2)
  17. Bit depth : 10 bits
  18. Bits/(Pixel*Frame) : 0.070
  19. Stream size : 10.4 GiB (95%)
  20. Default : Yes
  21. Forced : No
  22. Color range : Full
  23. Color primaries : BT.2020
  24. Transfer characteristics : PQ
  25. Matrix coefficients : BT.2020 non-constant
  26. Mastering display color primaries : Display P3
  27. Mastering display luminance : min: 0.0001 cd/m2, max: 1000 cd/m2

  28. Audio
  29. ID : 2
  30. Format : AC-3
  31. Format/Info : Audio Coding 3
  32. Commercial name : Dolby Digital
  33. Codec ID : A_AC3
  34. Duration : 1 h 46 min
  35. Bit rate mode : Constant
  36. Bit rate : 384 kb/s
  37. Channel(s) : 6 channels
  38. Channel layout : L R C LFE Ls Rs
  39. Sampling rate : 48.0 kHz
  40. Frame rate : 31.250 FPS (1536 SPF)
  41. Compression mode : Lossy
  42. Stream size : 292 MiB (3%)
  43. Language : English
  44. Service kind : Complete Main
  45. Default : Yes
  46. Forced : No

  47. Text
  48. ID : 3
  49. Format : UTF-8
  50. Codec ID : S_TEXT/UTF8
  51. Codec ID/Info : UTF-8 Plain Text
  52. Title : English
  53. Language : English
  54. Default : No
  55. Forced : No
复制代码

无限轮回/无限4k Infinite.2021.HDR.2160p.WEB.H265-4k电影下载
无限4k Infinite.2021.HDR.2160p.WEB.H265【10.99GB】
[Hao4k]无限4k Infinite.2021.HDR.2160p.WEB.H265-NAISU.torrent (55.72 KB, 售价: 2 K币)
回复

使用道具 举报

   发表回复

您需要登录后才可以回帖 登录 | 立即注册

返回列表 本版积分规则

  • 在线客服

  • 返回顶部