微博 微信

Hao4K影音

电影频道
电影封面:
片  名: 身在高地4k
电影分类: 剧情 歌舞 爱情片 其他 
国  家: 美国 
年  代: 2021年
分 辨 率: 4K(3840x2160)
电影格式: MKV|REMUX 
画质标准: HDR10 
音质编码: Dolby Digital Plus Audio 
电影声道: 其他 
帧数/FPS: 23.976 帧
电影语言: 英文原版 
资源大小: 18.61 GB
导  演: 朱浩伟
豆瓣评分:
中文字幕: -
剧情简介: 讲述在纽约的华盛顿高地,杂货店老板Usnavi在继承了祖母的财产后,将要关掉店铺回到家乡多米尼加共和国过退休生活,对此他百感交集,而拉美裔社区和那里居民的吸引力让他停下来思考。影片围绕Usnavi、一名大学生、一名出租车司机、一位美容院员工和一个渴望更好生活的老妇人展开,随着中产阶级化开始扎根,闷热夏天中,一场停电让个人危机达到前所未有的高度。
活在上城 / 纽约高地(台) / 狂舞纽约(港)/身在高地4k In.the.Heights.2021.2160p.HMAX.WEB-4k电影信息
  1. Video
  2. ID : 1
  3. Format : HEVC
  4. Format/Info : High Efficiency Video Coding
  5. Format profile : Main 10@L5@Main
  6. HDR format : SMPTE ST 2086, HDR10 compatible
  7. Codec ID : V_MPEGH/ISO/HEVC
  8. Duration : 2 h 22 min
  9. Bit rate : 17.9 Mb/s
  10. Width : 3 840 pixels
  11. Height : 2 160 pixels
  12. Display aspect ratio : 16:9
  13. Frame rate mode : Constant
  14. Frame rate : 23.976 (24000/1001) FPS
  15. Color space : YUV
  16. Chroma subsampling : 4:2:0
  17. Bit depth : 10 bits
  18. Bits/(Pixel*Frame) : 0.090
  19. Stream size : 17.8 GiB (96%)
  20. Writing library : x265 3.4hy:[Linux][GCC 7.5.0][64 bit] 10bit
  21. Encoding settings : cpuid=1111039 / frame-threads=1 / wpp / no-pmode / no-pme / no-psnr / no-ssim / log-level=2 / input-csp=1 / input-res=3840x2160 / interlace=0 / total-frames=0 / level-idc=0 / high-tier=1 / uhd-bd=0 / ref=4 / no-allow-non-conformance / repeat-headers / annexb / no-aud / no-hrd / info / hash=0 / no-temporal-layers / no-open-gop / min-keyint=96 / keyint=96 / gop-lookahead=0 / bframes=3 / b-adapt=2 / b-pyramid / bframe-bias=0 / rc-lookahead=25 / lookahead-slices=4 / scenecut=40 / hist-scenecut=0 / radl=0 / no-splice / no-intra-refresh / ctu=64 / min-cu-size=8 / rect / no-amp / max-tu-size=32 / tu-inter-depth=1 / tu-intra-depth=1 / limit-tu=0 / rdoq-level=2 / dynamic-rd=0.00 / no-ssim-rd / signhide / no-tskip / nr-intra=0 / nr-inter=0 / no-constrained-intra / strong-intra-smoothing / max-merge=3 / limit-refs=3 / limit-modes / me=3 / subme=3 / merange=57 / temporal-mvp / no-frame-dup / no-hme / weightp / no-weightb / no-analyze-src-pics / deblock=0:0 / sao / no-sao-non-deblock / rd=4 / selective-sao=4 / no-early-skip / rskip / no-fast-intra / no-tskip-fast / no-cu-lossless / no-b-intra / no-splitrd-skip / rdpenalty=0 / psy-rd=2.00 / psy-rdoq=1.00 / no-rd-refine / no-lossless / cbqpoffs=0 / crqpoffs=0 / rc=abr / bitrate=18000 / qcomp=0.60 / qpstep=4 / stats-write=0 / stats-read=2 / cplxblur=20.0 / qblur=0.5 / vbv-maxrate=24500 / vbv-bufsize=24500 / vbv-init=0.6 / vbv-end=0.6 / vbv-end-fr-adj=0.0 / ipratio=1.40 / pbratio=1.30 / aq-mode=2 / aq-strength=1.00 / cutree / zone-count=0 / no-strict-cbr / qg-size=32 / no-rc-grain / qpmax=69 / qpmin=0 / no-const-vbv / sar=0 / overscan=0 / videoformat=5 / range=0 / colorprim=9 / transfer=16 / colormatrix=9 / chromaloc=0 / display-window=0 / master-display=G(13250,34500)B(7500,3000)R(34000,16000)WP(15635,16450)L(10000000,1) / cll=721,227 / min-luma=0 / max-luma=1023 / log2-max-poc-lsb=8 / vui-timing-info / vui-hrd-info / no-concatenation / slices=1 / no-opt-qp-pps / no-opt-ref-list-length-pps / no-multi-pass-opt-rps / scenecut-bias=0.05 / hist-threshold=0.01 / no-opt-cu-delta-qp / no-aq-motion / hdr10 / no-hdr10-opt / no-dhdr10-opt / no-idr-recovery-sei / analysis-reuse-level=0 / analysis-save-reuse-level=0 / analysis-load-reuse-level=0 / scale-factor=0 / refine-intra=0 / refine-inter=0 / refine-mv=1 / refine-ctu-distortion=0 / no-limit-sao / ctu-info=0 / no-lowpass-dct / refine-analysis-type=0 / copy-pic=1 / max-ausize-factor=1.0 / no-dynamic-refine / no-single-sei / no-hevc-aq / no-svt / no-field / qp-adaptation-range=1.00 / no-scenecut-aware-qpconformance-window-offsets / right=0 / bottom=0 / decoder-max-rate=0
  22. Default : Yes
  23. Forced : No
  24. Color range : Limited
  25. Color primaries : BT.2020
  26. Transfer characteristics : PQ
  27. Matrix coefficients : BT.2020 non-constant
  28. Mastering display color primaries : Display P3
  29. Mastering display luminance : min: 0.0001 cd/m2, max: 1000 cd/m2
  30. Maximum Content Light Level : 721 cd/m2
  31. Maximum Frame-Average Light Level : 227 cd/m2

  32. Audio
  33. ID : 2
  34. Format : E-AC-3 JOC
  35. Format/Info : Enhanced AC-3 with Joint Object Coding
  36. Commercial name : Dolby Digital Plus with Dolby Atmos
  37. Codec ID : A_EAC3
  38. Duration : 2 h 22 min
  39. Bit rate mode : Constant
  40. Bit rate : 768 kb/s
  41. Channel(s) : 6 channels
  42. Channel layout : L R C LFE Ls Rs
  43. Sampling rate : 48.0 kHz
  44. Frame rate : 31.250 FPS (1536 SPF)
  45. Compression mode : Lossy
  46. Stream size : 785 MiB (4%)
  47. Title : English
  48. Language : English
  49. Service kind : Complete Main
  50. Default : No
  51. Forced : No
  52. Complexity index : 16
  53. Number of dynamic objects : 15
  54. Bed channel count : 1 channel
  55. Bed channel configuration : LFE

  56. Text #1
  57. ID : 3
  58. Format : UTF-8
  59. Codec ID : S_TEXT/UTF8
  60. Codec ID/Info : UTF-8 Plain Text
  61. Duration : 2 h 22 min
  62. Bit rate : 38 b/s
  63. Count of elements : 1772
  64. Stream size : 40.1 KiB (0%)
  65. Title : English
  66. Language : English
  67. Default : No
  68. Forced : No

  69. Text #2
  70. ID : 4
  71. Format : UTF-8
  72. Codec ID : S_TEXT/UTF8
  73. Codec ID/Info : UTF-8 Plain Text
  74. Duration : 2 h 22 min
  75. Bit rate : 75 b/s
  76. Count of elements : 2294
  77. Stream size : 78.6 KiB (0%)
  78. Title : English [SDH]
  79. Language : English
  80. Default : No
  81. Forced : No
复制代码

活在上城 / 纽约高地(台) / 狂舞纽约(港)/身在高地4k In.the.Heights.2021.2160p.HMAX.WEB-4k电影下载
身在高地4k In.the.Heights.2021.2160p.HMAX.WEB【18.61GB】
[Hao4k]身在高地4k In.the.Heights.2021.2160p.HMAX.WEB-DL.x265.10bit.HDR.DDP5.1.At.torrent (93.72 KB, 售价: 2 K币)
回复

使用道具 举报

全部回复15

axlrosexie 发表于 2021-6-10 21:02:14

axlrosexie 2

2021-6-10 21:02:14

有字幕了吗,HXDM
回复 支持 反对

使用道具 举报

wybinhua 发表于 2021-6-10 22:33:56

wybinhua 3

2021-6-10 22:33:56

感谢分享
回复 支持 反对

使用道具 举报

zgnshine 发表于 7 天前

zgnshine 4

7 天前

蹲个字幕以及mkv\mp4格式
回复 支持 反对

使用道具 举报

56789trewq 发表于 7 天前

56789trewq 5

7 天前

感謝樓主提供這麼多4K畫質內容,期待您往後的分享!
回复 支持 反对

使用道具 举报

13584427596 发表于 7 天前

13584427596 6

7 天前

非常好的4k资源,感谢楼主分享~
回复 支持 反对

使用道具 举报

liyun80000 发表于 7 天前

liyun80000 7

7 天前

谢谢楼主分享
回复 支持 反对

使用道具 举报

dk30129 发表于 6 天前

dk30129 8

6 天前

谢谢分享,顶你!!!
回复 支持 反对

使用道具 举报

ducaozz 发表于 6 天前

ducaozz 9

6 天前

好东西谢谢分享
回复 支持 反对

使用道具 举报

DipperRRR 发表于 6 天前 Hao4K手机版

DipperRRR 10

6 天前

下载PHP文件之后怎么办?
回复 支持 反对

使用道具 举报

klfg 发表于 6 天前

klfg 11

6 天前

求字幕,感谢分享
回复 支持 反对

使用道具 举报

a1147525 发表于 4 天前

a1147525 12

4 天前

谢谢分享
回复 支持 反对

使用道具 举报

monkey243 发表于 前天 18:07

monkey243 13

前天 18:07


感谢分享
回复 支持 反对

使用道具 举报

撒加 发表于 昨天 15:29

撒加 14

昨天 15:29

感谢分享
回复 支持 反对

使用道具 举报

buygolf 发表于 12 小时前

buygolf 15

12 小时前


好东西谢谢分享
回复 支持 反对

使用道具 举报

56789trewq 发表于 8 小时前

56789trewq 16

8 小时前

感謝樓主在hao4k分享4k視頻内容,也感謝樓主的辛苦付出!
回复 支持 反对

使用道具 举报

   发表回复

您需要登录后才可以回帖 登录 | 立即注册

返回列表 本版积分规则

关闭

站内通知上一条 /1 下一条

  • 在线客服

  • 返回顶部