微博 微信

Hao4K影音

电影频道
电影封面:
片  名: The.Accidental.President
电影分类: 纪录片 
国  家: 美国 
年  代: 2020年
分 辨 率: 4K(3840x2160)
电影格式: MKV|REMUX 
画质标准: HDR 
音质编码: Dolby-Atmos Dolby Digital Plus Audio 
电影声道: 5.1声道 
帧数/FPS: 23.976 帧
电影语言: 英文原版 
资源大小: 11.84 GB
导  演: 詹姆斯·弗莱彻
豆瓣评分: 5.5 分
中文字幕: -
剧情简介: 2016 年,几乎所有你问过的人,或者你咨询过的任何民意调查,都向你指出了希拉里·克林顿的压倒性优势。意外总统是一部平衡的专题纪录片,试图回答一个问题——唐纳德特朗普到底是怎么赢的?
The.Accidental.President.2020.2160p.WEB-DL.x265.10bit.HDR.DDP5.1.Atmos-4k纪录片信息
  1. Video
  2. ID : 1
  3. Format : HEVC
  4. Format/Info : High Efficiency Video Coding
  5. Format profile : Main 10@L5@High
  6. HDR format : SMPTE ST 2086, HDR10 compatible
  7. Codec ID : V_MPEGH/ISO/HEVC
  8. Duration : 1 h 48 min
  9. Bit rate : 14.1 Mb/s
  10. Width : 3 836 pixels
  11. Height : 2 156 pixels
  12. Display aspect ratio : 16:9
  13. Frame rate mode : Constant
  14. Frame rate : 23.976 (24000/1001) FPS
  15. Color space : YUV
  16. Chroma subsampling : 4:2:0 (Type 2)
  17. Bit depth : 10 bits
  18. Bits/(Pixel*Frame) : 0.071
  19. Stream size : 10.8 GiB (91%)
  20. Language : English
  21. Default : Yes
  22. Forced : No
  23. Color range : Limited
  24. Color primaries : BT.2020
  25. Transfer characteristics : PQ
  26. Matrix coefficients : BT.2020 non-constant
  27. Mastering display color primaries : Display P3
  28. Mastering display luminance : min: 0.0050 cd/m2, max: 1000 cd/m2
  29. Maximum Content Light Level : 3879 cd/m2
  30. Maximum Frame-Average Light Level : 243 cd/m2

  31. Audio #1
  32. ID : 2
  33. Format : E-AC-3 JOC
  34. Format/Info : Enhanced AC-3 with Joint Object Coding
  35. Commercial name : Dolby Digital Plus with Dolby Atmos
  36. Codec ID : A_EAC3
  37. Duration : 1 h 48 min
  38. Bit rate mode : Constant
  39. Bit rate : 768 kb/s
  40. Channel(s) : 6 channels
  41. Channel layout : L R C LFE Ls Rs
  42. Sampling rate : 48.0 kHz
  43. Frame rate : 31.250 FPS (1536 SPF)
  44. Compression mode : Lossy
  45. Stream size : 598 MiB (5%)
  46. Language : English
  47. Service kind : Complete Main
  48. Default : Yes
  49. Forced : No
  50. Complexity index : 16
  51. Number of dynamic objects : 15
  52. Bed channel count : 1 channel
  53. Bed channel configuration : LFE

  54. Audio #2
  55. ID : 3
  56. Format : E-AC-3
  57. Format/Info : Enhanced AC-3
  58. Commercial name : Dolby Digital Plus
  59. Codec ID : A_EAC3
  60. Duration : 1 h 48 min
  61. Bit rate mode : Constant
  62. Bit rate : 640 kb/s
  63. Channel(s) : 8 channels
  64. Channel layout : L R C LFE Ls Rs Lb Rb
  65. Sampling rate : 48.0 kHz
  66. Frame rate : 31.250 FPS (1536 SPF)
  67. Compression mode : Lossy
  68. Stream size : 499 MiB (4%)
  69. Language : English
  70. Service kind : Complete Main
  71. Default : No
  72. Forced : No

  73. Text
  74. ID : 4
  75. Format : UTF-8
  76. Codec ID : S_TEXT/UTF8
  77. Codec ID/Info : UTF-8 Plain Text
  78. Duration : 1 h 48 min
  79. Bit rate : 123 b/s
  80. Count of elements : 2557
  81. Stream size : 98.2 KiB (0%)
  82. Language : Spanish
  83. Default : No
  84. Forced : No
复制代码

The.Accidental.President.2020.2160p.WEB-DL.x265.10bit.HDR.DDP5.1.Atmos-4k纪录片下载

The.Accidental.President.2020.2160p.WEB-DL.x265.10bit.HDR.DDP5.1.Atmos【11.84 GB】
The.Accidental.President.2020.2160p.WEB-DL.x265.10bit.HDR.DDP5.1.Atmos-ROCCaT.torrent (59.86 KB, 售价: 2 K币)
回复

使用道具 举报

全部回复19

施华蔻 发表于 4 天前

施华蔻 2

4 天前

特朗普
回复 支持 反对

使用道具 举报

thp181200 发表于 4 天前

thp181200 3

4 天前

谢谢分享
回复 支持 1 反对 0

使用道具 举报

yangly 发表于 3 天前 Hao4K手机版

yangly 4

3 天前

感谢分享
回复 支持 反对

使用道具 举报

dqxa 发表于 3 天前

dqxa 5

3 天前

谢谢分享,配上字幕就霸道了。
回复 支持 反对

使用道具 举报

hhhz 发表于 3 天前

hhhz 6

3 天前

纪录片?得分似乎有点低。
回复 支持 反对

使用道具 举报

mgc123 发表于 3 天前

mgc123 7

3 天前

求字幕
回复 支持 反对

使用道具 举报

bbgrnnji 发表于 3 天前

bbgrnnji 8

3 天前

得分这么低的纪录片
回复 支持 反对

使用道具 举报

56789trewq 发表于 3 天前

56789trewq 9

3 天前

感謝樓主提供這麼多4K畫質內容,期待您往後的分享!
回复 支持 反对

使用道具 举报

罗洋 发表于 3 天前

罗洋 10

3 天前

这影子的辨识度真高
回复 支持 反对

使用道具 举报

Lyria 发表于 3 天前

Lyria 11

3 天前

不愧是川宝,剪影一眼就看出来是他
回复 支持 反对

使用道具 举报

wongmin 发表于 3 天前

wongmin 12

3 天前

这个片子英语字幕没有,只有西班牙语的,麻烦大了。
回复 支持 反对

使用道具 举报

huangzhongning1 发表于 3 天前

huangzhongning1 13

3 天前

这个必须下,最好再拍一部特普在2020是怎么输的。
回复 支持 反对

使用道具 举报

r31325 发表于 3 天前

r31325 14

3 天前

顶楼上的,输赢都不知道怎么搞出来的
回复 支持 反对

使用道具 举报

dk30129 发表于 3 天前

dk30129 15

3 天前

谢谢分享,辛苦了!!!
回复 支持 反对

使用道具 举报

不吃番茄炒蛋 发表于 前天 09:24

不吃番茄炒蛋 16

前天 09:24

天不生我川建国,美国万古如长夜
回复 支持 反对

使用道具 举报

蒙古船舶重工 发表于 前天 13:49

蒙古船舶重工 17

前天 13:49

一句话总结:以观海上台为标志,华盛顿精英对于社会分裂的加剧有意无意的忽视,被川宝发现并成功利用。
回复 支持 反对

使用道具 举报

windofwing 发表于 前天 17:00

windofwing 18

前天 17:00

谢谢楼主的分享!!喜欢纪录片!
回复 支持 反对

使用道具 举报

   发表回复

您需要登录后才可以回帖 登录 | 立即注册

返回列表 本版积分规则

  • 在线客服

  • 返回顶部