微博 微信

Hao4K影音

[美剧] 发射台4k Launchpad.S01.2160p美剧下载

2021-6-11 17:01:24 6065 1 回帖奖励 |倒序浏览 |阅读模式

大红色 帖主

2021-6-11 17:01:24

电视剧频道
电视剧封面:
电视剧名: 发射台4k
年  代: 2021  
国  家: 美国
类  别: 剧情 奇幻 
语  言: 英语
字  幕: 英文原版
上映日期: 2021-05-28
文件格式: mkv    
视频效果: 4K(3840x2160)    
资源大小: 11.60 GB
片  长: -
导  演: Ben Kuchera
剧情简介:  六集短片分别由几位不同国家不同背景的年轻电影人制作,向观众分享他们对影视剧集独有的观点和自己天马行空的想法。
迪士尼发射台/发射台4k Launchpad.S01.2160p.DSNP.WEB-DL.x265.10bit.HDR.DDP5.1-4k美剧信息
  1. Video
  2. ID : 1
  3. Format : HEVC
  4. Format/Info : High Efficiency Video Coding
  5. Format profile : Main 10@L5@High
  6. HDR format : SMPTE ST 2086, HDR10 compatible
  7. Codec ID : V_MPEGH/ISO/HEVC
  8. Duration : 20 min 0 s
  9. Bit rate : 15.5 Mb/s
  10. Width : 3 840 pixels
  11. Height : 2 160 pixels
  12. Display aspect ratio : 16:9
  13. Frame rate mode : Constant
  14. Frame rate : 23.976 (24000/1001) FPS
  15. Color space : YUV
  16. Chroma subsampling : 4:2:0
  17. Bit depth : 10 bits
  18. Bits/(Pixel*Frame) : 0.078
  19. Stream size : 2.17 GiB (98%)
  20. Language : English
  21. Default : Yes
  22. Forced : No
  23. Color range : Limited
  24. Color primaries : BT.2020
  25. Transfer characteristics : PQ
  26. Matrix coefficients : BT.2020 non-constant
  27. Mastering display color primaries : BT.2020
  28. Mastering display luminance : min: 0.0001 cd/m2, max: 1000 cd/m2

  29. Audio
  30. ID : 2
  31. Format : E-AC-3
  32. Format/Info : Enhanced AC-3
  33. Commercial name : Dolby Digital Plus
  34. Codec ID : A_EAC3
  35. Duration : 20 min 0 s
  36. Bit rate mode : Constant
  37. Bit rate : 256 kb/s
  38. Channel(s) : 6 channels
  39. Channel layout : L R C LFE Ls Rs
  40. Sampling rate : 48.0 kHz
  41. Frame rate : 31.250 FPS (1536 SPF)
  42. Compression mode : Lossy
  43. Stream size : 36.6 MiB (2%)
  44. Language : English
  45. Service kind : Complete Main
  46. Default : Yes
  47. Forced : No

  48. Text #1
  49. ID : 3
  50. Format : UTF-8
  51. Codec ID : S_TEXT/UTF8
  52. Codec ID/Info : UTF-8 Plain Text
  53. Duration : 18 min 19 s
  54. Bit rate : 53 b/s
  55. Count of elements : 214
  56. Stream size : 7.17 KiB (0%)
  57. Title : English (SDH)
  58. Language : English
  59. Default : No
  60. Forced : No

  61. Text #2
  62. ID : 4
  63. Format : UTF-8
  64. Codec ID : S_TEXT/UTF8
  65. Codec ID/Info : UTF-8 Plain Text
  66. Duration : 19 min 22 s
  67. Bit rate : 59 b/s
  68. Count of elements : 236
  69. Stream size : 8.47 KiB (0%)
  70. Title : Dansk
  71. Language : Danish
  72. Default : No
  73. Forced : No

  74. Text #3
  75. ID : 5
  76. Format : UTF-8
  77. Codec ID : S_TEXT/UTF8
  78. Codec ID/Info : UTF-8 Plain Text
  79. Duration : 19 min 22 s
  80. Bit rate : 63 b/s
  81. Count of elements : 226
  82. Stream size : 9.02 KiB (0%)
  83. Title : Deutsch
  84. Language : German
  85. Default : No
  86. Forced : No

  87. Text #4
  88. ID : 6
  89. Format : UTF-8
  90. Codec ID : S_TEXT/UTF8
  91. Codec ID/Info : UTF-8 Plain Text
  92. Duration : 19 min 22 s
  93. Bit rate : 61 b/s
  94. Count of elements : 230
  95. Stream size : 8.74 KiB (0%)
  96. Title : Español
  97. Language : Spanish
  98. Default : No
  99. Forced : No

  100. Text #5
  101. ID : 7
  102. Format : UTF-8
  103. Codec ID : S_TEXT/UTF8
  104. Codec ID/Info : UTF-8 Plain Text
  105. Duration : 19 min 22 s
  106. Bit rate : 62 b/s
  107. Count of elements : 232
  108. Stream size : 8.88 KiB (0%)
  109. Title : Español (Latinoamericano)
  110. Language : Spanish
  111. Default : No
  112. Forced : No

  113. Text #6
  114. ID : 8
  115. Format : UTF-8
  116. Codec ID : S_TEXT/UTF8
  117. Codec ID/Info : UTF-8 Plain Text
  118. Duration : 19 min 22 s
  119. Bit rate : 54 b/s
  120. Count of elements : 234
  121. Stream size : 7.78 KiB (0%)
  122. Title : Suomi
  123. Language : Finnish
  124. Default : No
  125. Forced : No

  126. Text #7
  127. ID : 9
  128. Format : UTF-8
  129. Codec ID : S_TEXT/UTF8
  130. Codec ID/Info : UTF-8 Plain Text
  131. Duration : 19 min 22 s
  132. Bit rate : 60 b/s
  133. Count of elements : 223
  134. Stream size : 8.53 KiB (0%)
  135. Title : Français
  136. Language : French
  137. Default : No
  138. Forced : No

  139. Text #8
  140. ID : 10
  141. Format : UTF-8
  142. Codec ID : S_TEXT/UTF8
  143. Codec ID/Info : UTF-8 Plain Text
  144. Duration : 19 min 22 s
  145. Bit rate : 61 b/s
  146. Count of elements : 235
  147. Stream size : 8.67 KiB (0%)
  148. Title : Italiano
  149. Language : Italian
  150. Default : No
  151. Forced : No
复制代码


迪士尼发射台/发射台4k Launchpad.S01.2160p.DSNP.WEB-DL.x265.10bit.HDR.DDP5.1-4k美剧下载

发射台4k Launchpad.S01.2160p.DSNP.WEB-DL.x265.10bit.HDR.DDP5.1【11.60GB】
[Hao4k]发射台4k Launchpad.S01.2160p.DSNP.WEB-DL.x265.10bit.HDR.DDP5.1-KOG.torrent (59.11 KB)
回复

使用道具 举报

全部回复0

   发表回复

您需要登录后才可以回帖 登录 | 立即注册

返回列表 本版积分规则

:
白银玩家
:
未填写

主题

帖子

积分1173

  • 在线客服

  • 返回顶部