微博 微信

Hao4K影音

[美剧] 传奇4k Marvel.Studios.Legends.S01.2160美剧下载

前天 22:32 44172 7 |只看大图 回帖奖励 |倒序浏览 |阅读模式

大红色 帖主

7 天前

电视剧频道
电视剧封面:
电视剧名: 传奇4k
年  代: 2021  
国  家: 美国
类  别: 动作 科幻 奇幻 
语  言: 英语
字  幕: 英文原版
上映日期: 2021-01-08
文件格式: mkv    
视频效果: 4K(3840x2160)    
资源大小: 6.12 GB
片  长: 7 分钟
导  演: -
剧情简介: 介绍漫威旗下的重要角色及经典瞬间
漫威影业:传奇 / 漫威电影宇宙:传奇/传奇4k Marvel.Studios.Legends.S01.2160p.DSNP.WEB-DL.x265.10bit.HDR.DDP5.1.Atmos-4k美剧信息

  1. Video
  2. ID : 1
  3. Format : HEVC
  4. Format/Info : High Efficiency Video Coding
  5. Format profile : Main 10@L5@High
  6. HDR format : SMPTE ST 2086, HDR10 compatible
  7. Codec ID : V_MPEGH/ISO/HEVC
  8. Duration : 7 min 53 s
  9. Bit rate : 16.3 Mb/s
  10. Width : 3 840 pixels
  11. Height : 2 160 pixels
  12. Display aspect ratio : 16:9
  13. Frame rate mode : Constant
  14. Frame rate : 23.976 (24000/1001) FPS
  15. Color space : YUV
  16. Chroma subsampling : 4:2:0
  17. Bit depth : 10 bits
  18. Bits/(Pixel*Frame) : 0.082
  19. Stream size : 918 MiB (95%)
  20. Language : English
  21. Default : Yes
  22. Forced : No
  23. Color range : Limited
  24. Color primaries : BT.2020
  25. Transfer characteristics : PQ
  26. Matrix coefficients : BT.2020 non-constant
  27. Mastering display color primaries : BT.2020
  28. Mastering display luminance : min: 0.0000 cd/m2, max: 1000 cd/m2

  29. Audio
  30. ID : 2
  31. Format : E-AC-3 JOC
  32. Format/Info : Enhanced AC-3 with Joint Object Coding
  33. Commercial name : Dolby Digital Plus with Dolby Atmos
  34. Format settings : Dolby Surround EX
  35. Codec ID : A_EAC3
  36. Duration : 7 min 53 s
  37. Bit rate mode : Constant
  38. Bit rate : 768 kb/s
  39. Channel(s) : 6 channels
  40. Channel layout : L R C LFE Ls Rs
  41. Sampling rate : 48.0 kHz
  42. Frame rate : 31.250 FPS (1536 SPF)
  43. Compression mode : Lossy
  44. Stream size : 43.4 MiB (5%)
  45. Language : English
  46. Service kind : Complete Main
  47. Default : Yes
  48. Forced : No
  49. Complexity index : 16
  50. Number of dynamic objects : 15
  51. Bed channel count : 1 channel
  52. Bed channel configuration : LFE

  53. Text #1
  54. ID : 3
  55. Format : UTF-8
  56. Codec ID : S_TEXT/UTF8
  57. Codec ID/Info : UTF-8 Plain Text
  58. Duration : 7 min 36 s
  59. Bit rate : 50 b/s
  60. Count of elements : 102
  61. Stream size : 2.82 KiB (0%)
  62. Title : English (SDH)
  63. Language : English
  64. Default : No
  65. Forced : No

  66. Text #2
  67. ID : 4
  68. Format : UTF-8
  69. Codec ID : S_TEXT/UTF8
  70. Codec ID/Info : UTF-8 Plain Text
  71. Duration : 7 min 49 s
  72. Bit rate : 43 b/s
  73. Count of elements : 79
  74. Stream size : 2.51 KiB (0%)
  75. Title : Dansk
  76. Language : Danish
  77. Default : No
  78. Forced : No

  79. Text #3
  80. ID : 5
  81. Format : UTF-8
  82. Codec ID : S_TEXT/UTF8
  83. Codec ID/Info : UTF-8 Plain Text
  84. Duration : 7 min 49 s
  85. Bit rate : 41 b/s
  86. Count of elements : 93
  87. Stream size : 2.39 KiB (0%)
  88. Title : Deutsch
  89. Language : German
  90. Default : No
  91. Forced : No

  92. Text #4
  93. ID : 6
  94. Format : UTF-8
  95. Codec ID : S_TEXT/UTF8
  96. Codec ID/Info : UTF-8 Plain Text
  97. Duration : 7 min 49 s
  98. Bit rate : 41 b/s
  99. Count of elements : 95
  100. Stream size : 2.37 KiB (0%)
  101. Title : Español
  102. Language : Spanish
  103. Default : No
  104. Forced : No

  105. Text #5
  106. ID : 7
  107. Format : UTF-8
  108. Codec ID : S_TEXT/UTF8
  109. Codec ID/Info : UTF-8 Plain Text
  110. Duration : 7 min 49 s
  111. Bit rate : 40 b/s
  112. Count of elements : 94
  113. Stream size : 2.32 KiB (0%)
  114. Title : Español (Latinoamericano)
  115. Language : Spanish
  116. Default : No
  117. Forced : No
复制代码


漫威影业:传奇 / 漫威电影宇宙:传奇/传奇4k Marvel.Studios.Legends.S01.2160p.DSNP.WEB-DL.x265.10bit.HDR.DDP5.1.Atmos-4k美剧下载

传奇4k Marvel.Studios.Legends.S01.2160p.DSNP.WEB-DL.x265.10bit.HDR.DDP5.1.Atmos【6.12GB】
[Hao4K]传奇4K Marvel.Studios.Legends.S01.2160p.DSNP.WEB-DL.x265.10bit.HDR.DDP5.1.torrent (31.82 KB)
回复

使用道具 举报

全部回复7

mo814876560 发表于 6 天前

mo814876560 2

6 天前

不喜欢英文版的,但还谢谢楼主的分享。
回复 支持 反对

使用道具 举报

pkzhouzr 发表于 6 天前

pkzhouzr 3

6 天前

喜欢漫威 谢谢楼主分享
回复 支持 反对

使用道具 举报

懒道人 发表于 6 天前

懒道人 4

6 天前

没有看到字幕呢
回复 支持 反对

使用道具 举报

天池blue 发表于 5 天前

天池blue 5

5 天前

这应该是预告片吧?只有7分钟。
回复 支持 反对

使用道具 举报

12341654678 发表于 前天 10:30

12341654678 6

前天 10:30

天池blue 发表于 2021-6-13 15:55
这应该是预告片吧?只有7分钟。

不是预告片,算是官方给今年目前出来的三部剧里面的主要人物的一个混剪吧,镜头都是这个角色在以前电影里的
回复 支持 反对

使用道具 举报

alleniyu 发表于 前天 12:10

alleniyu 7

前天 12:10

感谢分享,收藏了
回复 支持 反对

使用道具 举报

Cszsefj@221 发表于 前天 22:32

Cszsefj@221 8

前天 22:32

这个是什么呀 是电影吗?
回复 支持 反对

使用道具 举报

   发表回复

您需要登录后才可以回帖 登录 | 立即注册

返回列表 本版积分规则

:
白银玩家
:
未填写

主题

帖子

积分1161

关闭

站内通知上一条 /1 下一条

  • 在线客服

  • 返回顶部