微博 微信

Hao4K影音

[美剧] 爱你,维克托 第二季4k Love.Victor.S02.2160p美剧下载

7 天前 5329 1 |只看大图 回帖奖励 |倒序浏览 |阅读模式

大红色 帖主

7 天前

电视剧频道
电视剧封面:
电视剧名: 爱你,维克托 第二季4k
年  代: 2021  
国  家: 美国
类  别: 剧情 喜剧 爱情 
语  言: 英语
字  幕: -
上映日期: 2021-06-11
文件格式: mkv    
视频效果: 4K(3840x2160)    
资源大小: 32.15 GB
片  长: -
导  演: -
剧情简介: 《爱你西蒙》的衍生剧
爱你,西蒙(剧版)/爱你,维克托 第二季4k Love.Victor.S02.2160p.HULU.WEBRip.DDP5.1.x265美剧信息
  1. Video
  2. ID : 1
  3. Format : HEVC
  4. Format/Info : High Efficiency Video Coding
  5. Format profile : Main 10@L5.1@Main
  6. Codec ID : V_MPEGH/ISO/HEVC
  7. Duration : 33 min 36 s
  8. Bit rate : 15.4 Mb/s
  9. Width : 3 840 pixels
  10. Height : 2 160 pixels
  11. Display aspect ratio : 16:9
  12. Frame rate mode : Constant
  13. Frame rate : 23.976 (24000/1001) FPS
  14. Color space : YUV
  15. Chroma subsampling : 4:2:0
  16. Bit depth : 10 bits
  17. Bits/(Pixel*Frame) : 0.078
  18. Stream size : 3.62 GiB (96%)
  19. Default : Yes
  20. Forced : No

  21. Audio
  22. ID : 2
  23. Format : E-AC-3
  24. Format/Info : Enhanced AC-3
  25. Commercial name : Dolby Digital Plus
  26. Codec ID : A_EAC3
  27. Duration : 33 min 36 s
  28. Bit rate mode : Constant
  29. Bit rate : 256 kb/s
  30. Channel(s) : 6 channels
  31. Channel layout : L R C LFE Ls Rs
  32. Sampling rate : 48.0 kHz
  33. Frame rate : 31.250 FPS (1536 SPF)
  34. Compression mode : Lossy
  35. Stream size : 61.5 MiB (2%)
  36. Language : English
  37. Service kind : Complete Main
  38. Default : Yes
  39. Forced : No

  40. Text #1
  41. ID : 3
  42. Format : UTF-8
  43. Codec ID : S_TEXT/UTF8
  44. Codec ID/Info : UTF-8 Plain Text
  45. Title : English
  46. Language : English
  47. Default : No
  48. Forced : No

  49. Text #2
  50. ID : 4
  51. Format : UTF-8
  52. Codec ID : S_TEXT/UTF8
  53. Codec ID/Info : UTF-8 Plain Text
  54. Title : Spanish
  55. Language : Spanish
  56. Default : No
  57. Forced : No
复制代码


爱你,西蒙(剧版)/爱你,维克托 第二季4k Love.Victor.S02.2160p.HULU.WEBRip.DDP5.1.x265美剧下载

爱你,维克托 第二季4k Love.Victor.S02.2160p.HULU.WEBRip.DDP5.1.x265【32.15GB】
[Hao4K]爱你,维克托 第二季4K Love.Victor.S02.2160p.HULU.WEBRip.DDP5.1.x265-MIXED.torrent (81.66 KB)
回复

使用道具 举报

全部回复1

弥撒苦娃 发表于 7 天前

弥撒苦娃 2

7 天前

字幕啥时候出啊 大神
回复 支持 反对

使用道具 举报

   发表回复

您需要登录后才可以回帖 登录 | 立即注册

返回列表 本版积分规则

:
白银玩家
:
未填写

主题

帖子

积分1158

关闭

站内通知上一条 /1 下一条

  • 在线客服

  • 返回顶部