微博 微信

Hao4K影音

[美剧] 天黑请回家 第二季4k Home.Before.Dark.S02E01.2160p美剧下载

3 天前 10679 3 回帖奖励 |倒序浏览 |阅读模式

大红色 帖主

7 天前

电视剧频道
电视剧封面:
电视剧名: 天黑请回家 第二季4k
年  代: 2021  
国  家: 美国
类  别: 剧情 悬疑 
语  言: 英语
字  幕: 英文原版
上映日期: 2021-04
文件格式: mkv    
视频效果: 4K(3840x2160)    
资源大小: 7.79 GB
片  长: -
导  演: -
剧情简介: -
Hilde Cracks the Case/天黑请回家 第二季4k Home.Before.Dark.S02E01.HDR.2160p.WEB.H26-4k美剧信息
  1. Video
  2. ID : 1
  3. Format : HEVC
  4. Format/Info : High Efficiency Video Coding
  5. Format profile : Main 10@L5@High
  6. HDR format : SMPTE ST 2086, HDR10 compatible
  7. Codec ID : V_MPEGH/ISO/HEVC
  8. Duration : 44 min 27 s
  9. Bit rate : 23.8 Mb/s
  10. Width : 3 840 pixels
  11. Height : 1 920 pixels
  12. Display aspect ratio : 2.000
  13. Frame rate mode : Constant
  14. Frame rate : 23.976 (24000/1001) FPS
  15. Color space : YUV
  16. Chroma subsampling : 4:2:0 (Type 2)
  17. Bit depth : 10 bits
  18. Bits/(Pixel*Frame) : 0.135
  19. Stream size : 7.39 GiB (95%)
  20. Language : English
  21. Default : Yes
  22. Forced : No
  23. Color range : Limited
  24. Color primaries : BT.2020
  25. Transfer characteristics : PQ
  26. Matrix coefficients : BT.2020 non-constant
  27. Mastering display color primaries : Display P3
  28. Mastering display luminance : min: 0.0050 cd/m2, max: 1000 cd/m2
  29. Maximum Content Light Level : 1941 cd/m2
  30. Maximum Frame-Average Light Level : 390 cd/m2

  31. Audio
  32. ID : 2
  33. Format : E-AC-3 JOC
  34. Format/Info : Enhanced AC-3 with Joint Object Coding
  35. Commercial name : Dolby Digital Plus with Dolby Atmos
  36. Codec ID : A_EAC3
  37. Duration : 44 min 27 s
  38. Bit rate mode : Constant
  39. Bit rate : 768 kb/s
  40. Channel(s) : 6 channels
  41. Channel layout : L R C LFE Ls Rs
  42. Sampling rate : 48.0 kHz
  43. Frame rate : 31.250 FPS (1536 SPF)
  44. Compression mode : Lossy
  45. Stream size : 244 MiB (3%)
  46. Language : English
  47. Service kind : Complete Main
  48. Default : Yes
  49. Forced : No
  50. Complexity index : 16
  51. Number of dynamic objects : 15
  52. Bed channel count : 1 channel
  53. Bed channel configuration : LFE

  54. Text #1
  55. ID : 3
  56. Format : UTF-8
  57. Codec ID : S_TEXT/UTF8
  58. Codec ID/Info : UTF-8 Plain Text
  59. Title : English
  60. Language : English
  61. Default : No
  62. Forced : No

  63. Text #2
  64. ID : 4
  65. Format : UTF-8
  66. Codec ID : S_TEXT/UTF8
  67. Codec ID/Info : UTF-8 Plain Text
  68. Title : Arabic
  69. Language : Arabic
  70. Default : No
  71. Forced : No

  72. Text #3
  73. ID : 5
  74. Format : UTF-8
  75. Codec ID : S_TEXT/UTF8
  76. Codec ID/Info : UTF-8 Plain Text
  77. Title : Bulgarian
  78. Language : Bulgarian
  79. Default : No
  80. Forced : No

  81. Text #4
  82. ID : 6
  83. Format : UTF-8
  84. Codec ID : S_TEXT/UTF8
  85. Codec ID/Info : UTF-8 Plain Text
  86. Title : Chinese Simplified
  87. Language : Chinese
  88. Default : No
  89. Forced : No

  90. Text #5
  91. ID : 7
  92. Format : UTF-8
  93. Codec ID : S_TEXT/UTF8
  94. Codec ID/Info : UTF-8 Plain Text
  95. Title : Chinese Traditional
  96. Language : Chinese
  97. Default : No
  98. Forced : No

  99. Text #6
  100. ID : 8
  101. Format : UTF-8
  102. Codec ID : S_TEXT/UTF8
  103. Codec ID/Info : UTF-8 Plain Text
  104. Title : Chinese Yue
  105. Language : Chinese
  106. Default : No
  107. Forced : No

  108. Text #7
  109. ID : 9
  110. Format : UTF-8
  111. Codec ID : S_TEXT/UTF8
  112. Codec ID/Info : UTF-8 Plain Text
  113. Title : Czech
  114. Language : Czech
  115. Default : No
  116. Forced : No
复制代码

Hilde Cracks the Case/天黑请回家 第二季4k Home.Before.Dark.S02E01.HDR.2160p.WEB.H26-4k美剧下载

天黑请回家 第二季4k Home.Before.Dark.S02E01.HDR.2160p.WEB.H26【7.79GB】
[Hao4k]天黑请回家 第二季4k Home.Before.Dark.S02E01.2160p.WEB.H265-GGEZ.torrent (33.87 KB)

天黑请回家 第二季4k Home.Before.Dark.S02E01.2160p.WEB.H265【6.65GB】
[Hao4k]天黑请回家 第二季4k Home.Before.Dark.S02E01.HDR.2160p.WEB.H265-GGEZ.torrent (39.56 KB)
分享到:  QQ好友和群QQ好友和群
回复

使用道具 举报

全部回复3

2
mo814876560 发表于 6 天前

mo814876560 2

6 天前

喜欢看美剧,下载试下先。谢谢楼主、
回复 支持 反对

使用道具 举报

3
blackhead 发表于 3 天前

blackhead 3

3 天前

謝謝樓主分享
回复 支持 反对

使用道具 举报

4
ggang 发表于 3 天前

ggang 4

3 天前

楼主幸苦了 感谢无私付出
回复 支持 反对

使用道具 举报

   发表回复

您需要登录后才可以回帖 登录 | 立即注册

返回列表 本版积分规则

:
白银玩家
:
未填写

主题

帖子

积分1161

关闭

站内通知上一条 /1 下一条

  • 在线客服

  • 返回顶部